Welcome to Doom9's Forum, THE in-place to be for everyone interested in DVD conversion.

Before you start posting please read the forum rules. By posting to this forum you agree to abide by the rules.

 

Go Back   Doom9's Forum > General > Linux, Mac OS X, & Co

 
 
Thread Tools Search this Thread Display Modes
Prev Previous Post   Next Post Next
Old 17th December 2011, 14:32   #1  |  Link
cord-factor
Registered User
 
Join Date: Jan 2008
Location: Kharkov, UA
Posts: 105
MPlayer and EIA-608 closed captioning ?

Hello again,
I have MPEG-TS file (IPTV dump) with HDTV and subtitles. Here is mediainfo output:
Code:
General
ID                               : 1 (0x1)
Complete name                    : Projekt X 1987 HDTV 1080i.ts
Format                           : MPEG-TS
File size                        : 10.1 GiB
Duration                         : 1h 47mn
Overall bit rate                 : 13.5 Mbps
Maximum Overall bit rate         : 35.5 Mbps

Video
ID                               : 4113 (0x1011)
Menu ID                          : 1 (0x1)
Format                           : MPEG Video
Format version                   : Version 2
Format profile                   : Main@High
Format settings, BVOP            : Yes
Format settings, Matrix          : Custom
Codec ID                         : 2
Duration                         : 1h 47mn
Bit rate mode                    : Variable
Bit rate                         : 12.2 Mbps
Nominal bit rate                 : 18.0 Mbps
Width                            : 1 920 pixels
Height                           : 1 080 pixels
Display aspect ratio             : 16:9
Frame rate                       : 29.970 fps
Color space                      : YUV
Chroma subsampling               : 4:2:0
Bit depth                        : 8 bits
Compression mode                 : Lossy
Bits/(Pixel*Frame)               : 0.197
Stream size                      : 9.16 GiB (91%)

Audio #1
ID                               : 4352 (0x1100)
Menu ID                          : 1 (0x1)
Format                           : AC-3
Format/Info                      : Audio Coding 3
Mode extension                   : CM (complete main)
Codec ID                         : 129
Duration                         : 1h 47mn
Bit rate mode                    : Constant
Bit rate                         : 192 Kbps
Channel(s)                       : 2 channels
Channel positions                : Front: L R
Sampling rate                    : 48.0 KHz
Bit depth                        : 16 bits
Compression mode                 : Lossy
Stream size                      : 147 MiB (1%)
Language                         : Russian

Audio #2
ID                               : 4353 (0x1101)
Menu ID                          : 1 (0x1)
Format                           : AC-3
Format/Info                      : Audio Coding 3
Mode extension                   : CM (complete main)
Codec ID                         : 129
Duration                         : 1h 47mn
Bit rate mode                    : Constant
Bit rate                         : 384 Kbps
Channel(s)                       : 2 channels
Channel positions                : Front: L R
Sampling rate                    : 48.0 KHz
Bit depth                        : 16 bits
Compression mode                 : Lossy
Stream size                      : 295 MiB (3%)
Language                         : English

Text #1
ID                               : 4113 (0x1011)-608-1
Menu ID                          : 1 (0x1)
Format                           : EIA-608
Muxing mode                      : A/53 / DTVCC Transport
Muxing mode, more info           : Muxed in Video #1
Duration                         : 1h 47mn
Stream size                      : 0.00 Byte (0%)

Text #2
ID                               : 4113 (0x1011)-1
Menu ID                          : 1 (0x1)
Format                           : EIA-708
Muxing mode                      : A/53 / DTVCC Transport
Muxing mode, more info           : Muxed in Video #1
Duration                         : 1h 47mn
Stream size                      : 0.00 Byte (0%)
Can I watch the subtitles somehow? I tried -subcc option with mplayer, but threre is no changes
__________________
Gentoo linux
cord-factor is offline   Reply With Quote
 

Tags
closed captioning, eia-708, mpeg-ts, mplayer

Thread Tools Search this Thread
Search this Thread:

Advanced Search
Display Modes

Posting Rules
You may not post new threads
You may not post replies
You may not post attachments
You may not edit your posts

BB code is On
Smilies are On
[IMG] code is On
HTML code is Off

Forum Jump


All times are GMT +1. The time now is 16:33.


Powered by vBulletin® Version 3.8.11
Copyright ©2000 - 2024, vBulletin Solutions Inc.