Welcome to Doom9's Forum, THE in-place to be for everyone interested in DVD conversion.

Before you start posting please read the forum rules. By posting to this forum you agree to abide by the rules.

 

Go Back   Doom9's Forum > Announcements and Chat > General Discussion

Closed Thread
 
Thread Tools Search this Thread Display Modes
Old 18th July 2015, 16:37   #1  |  Link
Dlget
Registered User
 
Join Date: Sep 2012
Posts: 53
Video Playback Issue

Hi,
I'm getting glitches while playing video

Code:
General
Complete name                  : C:\Users\****\Downloads\Torrents\****\****.mp4
Format                         : MPEG-4
Format profile                 : Base Media
Codec ID                       : isom
File size                      : 374 MiB
Duration                       : 54mn 45s
Overall bit rate mode          : Variable
Overall bit rate               : 956 Kbps
Encoded date                   : UTC 2015-06-06 15:28:47
Tagged date                    : UTC 2015-06-06 15:28:47

Video
ID                             : 1
Format                         : AVC
Format/Info                    : Advanced Video Codec
Format profile                 : High@L3.1
Format settings, CABAC         : Yes
Format settings, ReFrames      : 15 frames
Codec ID                       : avc1
Codec ID/Info                  : Advanced Video Coding
Duration                       : 54mn 45s
Bit rate                       : 825 Kbps
Maximum bit rate               : 11.9 Mbps
Width                          : 720 pixels
Height                         : 404 pixels
Display aspect ratio           : 16:9
Original display aspect ratio  : 16:9
Frame rate mode                : Constant
Frame rate                     : 23.976 fps
Color space                    : YUV
Chroma subsampling             : 4:2:0
Bit depth                      : 8 bits
Scan type                      : Progressive
Bits/(Pixel*Frame)             : 0.118
Stream size                    : 323 MiB (86%)
Writing library                : x264 core 146 r2538 121396c
Encoding settings              : cabac=1 / ref=15 / deblock=1:-3:-3 / analyse=0x3:0x133 / me=umh / subme=10 / psy=1 / psy_rd=1.00:0.00 / mixed_ref=1 / me_range=24 / chroma_me=1 / trellis=2 / 8x8dct=1 / cqm=0 / deadzone=21,11 / fast_pskip=0 / chroma_qp_offset=-2 / threads=12 / lookahead_threads=2 / sliced_threads=0 / nr=0 / decimate=0 / interlaced=0 / bluray_compat=0 / constrained_intra=0 / bframes=5 / b_pyramid=2 / b_adapt=2 / b_bias=0 / direct=3 / weightb=1 / open_gop=0 / weightp=2 / keyint=250 / keyint_min=23 / scenecut=40 / intra_refresh=0 / rc_lookahead=60 / rc=crf / mbtree=1 / crf=17.0 / qcomp=0.60 / qpmin=0 / qpmax=69 / qpstep=4 / ip_ratio=1.40 / aq=1:0.80
Encoded date                   : UTC 2015-06-06 15:28:47
Tagged date                    : UTC 2015-06-06 15:29:00
Matrix coefficients            : BT.709
Color range                    : Limited

Audio
ID                             : 2
Format                         : AAC
Format/Info                    : Advanced Audio Codec
Format profile                 : LC
Codec ID                       : 40
Duration                       : 54mn 45s
Bit rate mode                  : Variable
Bit rate                       : 127 Kbps
Maximum bit rate               : 202 Kbps
Channel(s)                     : 2 channels
Channel positions              : Front: L R
Sampling rate                  : 48.0 KHz
Compression mode               : Lossy
Stream size                    : 49.6 MiB (13%)
Encoded date                   : UTC 2015-06-06 15:28:59
Tagged date                    : UTC 2015-06-06 15:29:00

With out hardware acceleration [which i normally use] ,playback stops for few sec while jumping & if i use CUVID as hardware acceleration it doesn't stop.But i see some weird frames.I Only finding such problem form only 1 serial which is encoded by [codename SNEAkY ] .
Im using madVR + Lav filters. i52500k & GTX 960 OC Strix
Dlget is offline  
Old 18th July 2015, 22:53   #2  |  Link
foxyshadis
ангел смерти
 
foxyshadis's Avatar
 
Join Date: Nov 2004
Location: Lost
Posts: 9,564
Sorry, this falls square under Rule 6. No help with any illegal downloads.
foxyshadis is offline  
Closed Thread

Thread Tools Search this Thread
Search this Thread:

Advanced Search
Display Modes

Posting Rules
You may not post new threads
You may not post replies
You may not post attachments
You may not edit your posts

BB code is On
Smilies are On
[IMG] code is On
HTML code is Off

Forum Jump


All times are GMT +1. The time now is 18:47.


Powered by vBulletin® Version 3.8.11
Copyright ©2000 - 2021, vBulletin Solutions Inc.