Welcome to Doom9's Forum, THE in-place to be for everyone interested in DVD conversion.

Before you start posting please read the forum rules. By posting to this forum you agree to abide by the rules.

 

Go Back   Doom9's Forum > Hardware & Software > Software players

Closed Thread
 
Thread Tools Search this Thread Display Modes
Old 12th November 2011, 18:39   #18421  |  Link
CruNcher
Registered User
 
CruNcher's Avatar
 
Join Date: Apr 2002
Location: Germany
Posts: 4,949
For what would it be good for MPC-HC needs a entirely new flexible and Content Centric Skin system like Potplayers Directx9 XML based one
__________________
all my compares are riddles so please try to decipher them yourselves :)

It is about Time

Join the Revolution NOW before it is to Late !

http://forum.doom9.org/showthread.php?t=168004

Last edited by CruNcher; 12th November 2011 at 18:43.
CruNcher is offline  
Old 12th November 2011, 23:12   #18422  |  Link
ryrynz
Registered User
 
ryrynz's Avatar
 
Join Date: Mar 2009
Posts: 3,171
Quote:
Originally Posted by VipZ View Post
Been wanting to be able to compile the BE mod and remove the internal filters for ages
Will you be updating your kit with these builds?
ryrynz is offline  
Old 13th November 2011, 00:26   #18423  |  Link
kasper93
MPC-HC Developer
 
Join Date: May 2010
Location: Poland
Posts: 556
There is weird problem with subtitle font size setting. When I set "16", apply and than go back to settings there is in fact set "15". And it happens whit almost all sizes...
18 -> 17
16 -> 15
15 -> 14
but 14 -> 14
and again 13 -> 12
12 -> 11
11 -> 11

Sorry for poor explanation, I hope you understand me.
kasper93 is offline  
Old 13th November 2011, 02:05   #18424  |  Link
Revenent
Registered User
 
Join Date: Sep 2011
Posts: 3
Were there any changes in the H264 decoder (FFmpeg version) between 3819 and 3824?

I encoded Cars 2 with Handbrake svn 4342 and it plays perfectly fine on 3819 but either can't play or can't seek on 3824. In either case, if it fails, it locks up MPC-HC.

This is on XP SP3 x86.

Code:
General
Unique ID                      : 197279323717827257947793944775431343446 (0x946A9D9E3B1F64698A3AF2CB6F68CD56)
Complete name                  : \\server\videos\Movies\Cars Series\Cars 2\Cars 2.mkv
Format                         : Matroska
Format version                 : Version 2
File size                      : 9.41 GiB
Duration                       : 1h 46mn
Overall bit rate mode          : Variable
Overall bit rate               : 12.7 Mbps
Encoded date                   : UTC 2011-11-10 14:37:07
Writing application            : mkvmerge v5.0.1 ('Es ist Sommer') built on Oct  9 2011 11:55:43
Writing library                : libebml v1.2.2 + libmatroska v1.3.0

Video
ID                             : 1
Format                         : AVC
Format/Info                    : Advanced Video Codec
Format profile                 : High@L5.0
Format settings, CABAC         : Yes
Format settings, ReFrames      : 6 frames
Muxing mode                    : Header stripping
Codec ID                       : V_MPEG4/ISO/AVC
Duration                       : 1h 46mn
Bit rate                       : 6 546 Kbps
Width                          : 1 920 pixels
Height                         : 802 pixels
Display aspect ratio           : 2.40:1
Frame rate                     : 23.976 fps
Color space                    : YUV
Chroma subsampling             : 4:2:0
Bit depth                      : 8 bits
Scan type                      : Progressive
Bits/(Pixel*Frame)             : 0.177
Stream size                    : 4.86 GiB (52%)
Writing library                : x264 core 119
Encoding settings              : cabac=1 / ref=6 / deblock=1:0:0 / analyse=0x3:0x113 / me=umh / subme=8 / psy=1 / psy_rd=1.00:0.00 / mixed_ref=1 / me_range=16 / chroma_me=1 / trellis=1 / 8x8dct=1 / cqm=0 / deadzone=21,11 / fast_pskip=1 / chroma_qp_offset=-2 / threads=6 / sliced_threads=0 / nr=0 / decimate=0 / interlaced=0 / bluray_compat=0 / constrained_intra=0 / bframes=3 / b_pyramid=2 / b_adapt=2 / b_bias=0 / direct=1 / weightb=1 / open_gop=0 / weightp=2 / keyint=240 / keyint_min=24 / scenecut=40 / intra_refresh=0 / rc_lookahead=50 / rc=crf / mbtree=1 / crf=20.0 / qcomp=0.60 / qpmin=3 / qpmax=69 / qpstep=4 / ip_ratio=1.40 / aq=1:1.00
Language                       : English
Color primaries                : BT.709-5, BT.1361, IEC 61966-2-4, SMPTE RP177
Transfer characteristics       : BT.709-5, BT.1361
Matrix coefficients            : BT.709-5, BT.1361, IEC 61966-2-4 709, SMPTE RP177

Audio #1
ID                             : 2
Format                         : DTS
Format/Info                    : Digital Theater Systems
Format profile                 : MA / Core
Muxing mode                    : Header stripping
Codec ID                       : A_DTS
Duration                       : 1h 46mn
Bit rate mode                  : Variable
Bit rate                       : 3 499 Kbps / 1 510 Kbps
Channel(s)                     : 8 channels / 6 channels
Channel positions              : Front: L C R, Side: L R, Back: L R, LFE / Front: L C R, Side: L R, LFE
Sampling rate                  : 48.0 KHz
Bit depth                      : 24 bits
Compression mode               : Lossless / Lossy
Language                       : English

Audio #2
ID                             : 3
Format                         : DTS
Format/Info                    : Digital Theater Systems
Format profile                 : MA / Core
Muxing mode                    : Header stripping
Codec ID                       : A_DTS
Duration                       : 1h 46mn
Bit rate mode                  : Variable
Bit rate                       : 2 062 Kbps / 1 510 Kbps
Channel(s)                     : 6 channels
Channel positions              : Front: L C R, Side: L R, LFE
Sampling rate                  : 48.0 KHz
Bit depth                      : 16 bits
Compression mode               : Lossless / Lossy
Language                       : English

Audio #3
ID                             : 4
Format                         : AC-3
Format/Info                    : Audio Coding 3
Mode extension                 : CM (complete main)
Muxing mode                    : Header stripping
Codec ID                       : A_AC3
Duration                       : 1h 46mn
Bit rate mode                  : Constant
Bit rate                       : 320 Kbps
Channel(s)                     : 2 channels
Channel positions              : Front: L R
Sampling rate                  : 48.0 KHz
Bit depth                      : 16 bits
Compression mode               : Lossy
Stream size                    : 243 MiB (3%)
Language                       : English

Text #1
ID                             : 5
Format                         : UTF-8
Codec ID                       : S_TEXT/UTF8
Codec ID/Info                  : UTF-8 Plain Text
Language                       : English

Text #2
ID                             : 6
Format                         : PGS
Muxing mode                    : zlib
Codec ID                       : S_HDMV/PGS
Codec ID/Info                  : The same subtitle format used on BDs/HD-DVDs
Language                       : English

Text #3
ID                             : 7
Format                         : PGS
Muxing mode                    : zlib
Codec ID                       : S_HDMV/PGS
Codec ID/Info                  : The same subtitle format used on BDs/HD-DVDs
Language                       : English

Menu
00:00:00.000                   : en:Chapter 1
00:01:28.254                   : en:Chapter 2
00:04:47.578                   : en:Chapter 3
00:07:43.671                   : en:Chapter 4
00:12:07.893                   : en:Chapter 5
00:17:48.901                   : en:Chapter 6
00:20:01.283                   : en:Chapter 7
00:22:51.495                   : en:Chapter 8
00:26:34.593                   : en:Chapter 9
00:30:30.119                   : en:Chapter 10
00:32:41.918                   : en:Chapter 11
00:34:13.468                   : en:Chapter 12
00:37:15.524                   : en:Chapter 13
00:40:44.108                   : en:Chapter 14
00:42:52.736                   : en:Chapter 15
00:46:18.525                   : en:Chapter 16
00:46:57.898                   : en:Chapter 17
00:49:48.485                   : en:Chapter 18
00:53:56.358                   : en:Chapter 19
00:54:57.210                   : en:Chapter 20
00:57:36.161                   : en:Chapter 21
00:59:27.689                   : en:Chapter 22
01:02:16.899                   : en:Chapter 23
01:05:56.285                   : en:Chapter 24
01:12:31.764                   : en:Chapter 25
01:14:05.232                   : en:Chapter 26
01:15:23.894                   : en:Chapter 27
01:21:12.993                   : en:Chapter 28
01:23:22.247                   : en:Chapter 29
01:29:06.924                   : en:Chapter 30
01:31:48.127                   : en:Chapter 31
01:32:41.222                   : en:Chapter 32
01:38:18.309                   : en:Chapter 33
01:46:15.702                   : en:Chapter 34
Thanks!
Revenent is offline  
Old 13th November 2011, 04:19   #18425  |  Link
Aleksoid1978
Registered User
 
Aleksoid1978's Avatar
 
Join Date: Apr 2008
Location: Russia, Vladivostok
Posts: 2,206
Quote:
Originally Posted by Revenent View Post
Were there any changes in the H264 decoder (FFmpeg version) between 3819 and 3824?

I encoded Cars 2 with Handbrake svn 4342 and it plays perfectly fine on 3819 but either can't play or can't seek on 3824. In either case, if it fails, it locks up MPC-HC.

This is on XP SP3 x86.

Code:
General
Unique ID                      : 197279323717827257947793944775431343446 (0x946A9D9E3B1F64698A3AF2CB6F68CD56)
Complete name                  : \\server\videos\Movies\Cars Series\Cars 2\Cars 2.mkv
Format                         : Matroska
Format version                 : Version 2
File size                      : 9.41 GiB
Duration                       : 1h 46mn
Overall bit rate mode          : Variable
Overall bit rate               : 12.7 Mbps
Encoded date                   : UTC 2011-11-10 14:37:07
Writing application            : mkvmerge v5.0.1 ('Es ist Sommer') built on Oct  9 2011 11:55:43
Writing library                : libebml v1.2.2 + libmatroska v1.3.0

Video
ID                             : 1
Format                         : AVC
Format/Info                    : Advanced Video Codec
Format profile                 : High@L5.0
Format settings, CABAC         : Yes
Format settings, ReFrames      : 6 frames
Muxing mode                    : Header stripping
Codec ID                       : V_MPEG4/ISO/AVC
Duration                       : 1h 46mn
Bit rate                       : 6 546 Kbps
Width                          : 1 920 pixels
Height                         : 802 pixels
Display aspect ratio           : 2.40:1
Frame rate                     : 23.976 fps
Color space                    : YUV
Chroma subsampling             : 4:2:0
Bit depth                      : 8 bits
Scan type                      : Progressive
Bits/(Pixel*Frame)             : 0.177
Stream size                    : 4.86 GiB (52%)
Writing library                : x264 core 119
Encoding settings              : cabac=1 / ref=6 / deblock=1:0:0 / analyse=0x3:0x113 / me=umh / subme=8 / psy=1 / psy_rd=1.00:0.00 / mixed_ref=1 / me_range=16 / chroma_me=1 / trellis=1 / 8x8dct=1 / cqm=0 / deadzone=21,11 / fast_pskip=1 / chroma_qp_offset=-2 / threads=6 / sliced_threads=0 / nr=0 / decimate=0 / interlaced=0 / bluray_compat=0 / constrained_intra=0 / bframes=3 / b_pyramid=2 / b_adapt=2 / b_bias=0 / direct=1 / weightb=1 / open_gop=0 / weightp=2 / keyint=240 / keyint_min=24 / scenecut=40 / intra_refresh=0 / rc_lookahead=50 / rc=crf / mbtree=1 / crf=20.0 / qcomp=0.60 / qpmin=3 / qpmax=69 / qpstep=4 / ip_ratio=1.40 / aq=1:1.00
Language                       : English
Color primaries                : BT.709-5, BT.1361, IEC 61966-2-4, SMPTE RP177
Transfer characteristics       : BT.709-5, BT.1361
Matrix coefficients            : BT.709-5, BT.1361, IEC 61966-2-4 709, SMPTE RP177

Audio #1
ID                             : 2
Format                         : DTS
Format/Info                    : Digital Theater Systems
Format profile                 : MA / Core
Muxing mode                    : Header stripping
Codec ID                       : A_DTS
Duration                       : 1h 46mn
Bit rate mode                  : Variable
Bit rate                       : 3 499 Kbps / 1 510 Kbps
Channel(s)                     : 8 channels / 6 channels
Channel positions              : Front: L C R, Side: L R, Back: L R, LFE / Front: L C R, Side: L R, LFE
Sampling rate                  : 48.0 KHz
Bit depth                      : 24 bits
Compression mode               : Lossless / Lossy
Language                       : English

Audio #2
ID                             : 3
Format                         : DTS
Format/Info                    : Digital Theater Systems
Format profile                 : MA / Core
Muxing mode                    : Header stripping
Codec ID                       : A_DTS
Duration                       : 1h 46mn
Bit rate mode                  : Variable
Bit rate                       : 2 062 Kbps / 1 510 Kbps
Channel(s)                     : 6 channels
Channel positions              : Front: L C R, Side: L R, LFE
Sampling rate                  : 48.0 KHz
Bit depth                      : 16 bits
Compression mode               : Lossless / Lossy
Language                       : English

Audio #3
ID                             : 4
Format                         : AC-3
Format/Info                    : Audio Coding 3
Mode extension                 : CM (complete main)
Muxing mode                    : Header stripping
Codec ID                       : A_AC3
Duration                       : 1h 46mn
Bit rate mode                  : Constant
Bit rate                       : 320 Kbps
Channel(s)                     : 2 channels
Channel positions              : Front: L R
Sampling rate                  : 48.0 KHz
Bit depth                      : 16 bits
Compression mode               : Lossy
Stream size                    : 243 MiB (3%)
Language                       : English

Text #1
ID                             : 5
Format                         : UTF-8
Codec ID                       : S_TEXT/UTF8
Codec ID/Info                  : UTF-8 Plain Text
Language                       : English

Text #2
ID                             : 6
Format                         : PGS
Muxing mode                    : zlib
Codec ID                       : S_HDMV/PGS
Codec ID/Info                  : The same subtitle format used on BDs/HD-DVDs
Language                       : English

Text #3
ID                             : 7
Format                         : PGS
Muxing mode                    : zlib
Codec ID                       : S_HDMV/PGS
Codec ID/Info                  : The same subtitle format used on BDs/HD-DVDs
Language                       : English

Menu
00:00:00.000                   : en:Chapter 1
00:01:28.254                   : en:Chapter 2
00:04:47.578                   : en:Chapter 3
00:07:43.671                   : en:Chapter 4
00:12:07.893                   : en:Chapter 5
00:17:48.901                   : en:Chapter 6
00:20:01.283                   : en:Chapter 7
00:22:51.495                   : en:Chapter 8
00:26:34.593                   : en:Chapter 9
00:30:30.119                   : en:Chapter 10
00:32:41.918                   : en:Chapter 11
00:34:13.468                   : en:Chapter 12
00:37:15.524                   : en:Chapter 13
00:40:44.108                   : en:Chapter 14
00:42:52.736                   : en:Chapter 15
00:46:18.525                   : en:Chapter 16
00:46:57.898                   : en:Chapter 17
00:49:48.485                   : en:Chapter 18
00:53:56.358                   : en:Chapter 19
00:54:57.210                   : en:Chapter 20
00:57:36.161                   : en:Chapter 21
00:59:27.689                   : en:Chapter 22
01:02:16.899                   : en:Chapter 23
01:05:56.285                   : en:Chapter 24
01:12:31.764                   : en:Chapter 25
01:14:05.232                   : en:Chapter 26
01:15:23.894                   : en:Chapter 27
01:21:12.993                   : en:Chapter 28
01:23:22.247                   : en:Chapter 29
01:29:06.924                   : en:Chapter 30
01:31:48.127                   : en:Chapter 31
01:32:41.222                   : en:Chapter 32
01:38:18.309                   : en:Chapter 33
01:46:15.702                   : en:Chapter 34
Thanks!
Try in decoder setting set Thread Count = 1.

P.S. Big thanks to XhmikosR ... for this bug, after rev.3824
__________________
I7 2600K@4.2 /Asrock P67 Extreme4 Gen 3 /Kingston HyperX 8Gb 1866 (4x2) Kit /OCZ Vertex 3 256Gb /Gigabyte GTX 960 /BenQ EW2430 /LG 47LM620T /Yamaha RX-V471 + NS-555 + NS-C444 + NS-333 + YST-SW215

Last edited by Aleksoid1978; 13th November 2011 at 04:21.
Aleksoid1978 is offline  
Old 13th November 2011, 05:22   #18426  |  Link
boyumeow
Registered User
 
boyumeow's Avatar
 
Join Date: Aug 2007
Posts: 143
Quote:
Originally Posted by kirakami View Post
You can get latest revision here only
http://goo.gl/8NqfJ
The address that U have link to is XhmikosR build, which is not any BE-MOD version, just normal svn-trunk version.

Only Alexins website have the BE-Mod version, plus this new guy

Quote:
Originally Posted by Blitzker View Post
Hello,

I've been compiling MPC-HC with the BE mod for myself for a while and thought it could be good to share it with the nice people of doom9 community!
Those builds are made with the default settings. http://www.mediafire.com/?nbb4gclb828ax

Big thanks to all people working on this very nice player!
with the latest version.

Thanks Blitzker for yours BE-Mod version (if U could include with Alexins iconlib would be nice but its all up to U, as I'm very happy with latest build, so that I dun have to build it myself ).

Last edited by boyumeow; 13th November 2011 at 05:33. Reason: Some more extra...
boyumeow is offline  
Old 13th November 2011, 09:07   #18427  |  Link
kirakami
Registered User
 
Join Date: Aug 2011
Posts: 76
@boyumeow
what is Alexins website address?
kirakami is offline  
Old 13th November 2011, 10:34   #18428  |  Link
VipZ
Registered User
 
Join Date: Jun 2009
Location: London
Posts: 376
Quote:
Originally Posted by ryrynz View Post
Will you be updating your kit with these builds?
Yep, already got a build done

Just need to do some testing etc before doing a new final, may have done by end of day. I my builds already have the BE mod icon, but I am also thinking of trying to edit the buttons to do some anti-aliasing on them.
__________________
Windows 10 Pro x64 (1809), CPU: Core i7 6700K, GPU: GeForce GTX 980 /w 417.71, Audio: HDMI to Yamaha RX-A3060 (5.1)

Last edited by VipZ; 13th November 2011 at 11:05.
VipZ is offline  
Old 13th November 2011, 10:38   #18429  |  Link
the_weirdo
Yes, I'm weird.
 
the_weirdo's Avatar
 
Join Date: May 2010
Location: Southeast Asia
Posts: 273
Quote:
Originally Posted by kirakami View Post
@boyumeow
what is Alexins website address?
http://www.xvidvideo.ru/
But it seems that he's on vacation or something, and didn't update his builds for a month.
the_weirdo is offline  
Old 13th November 2011, 11:54   #18430  |  Link
Chikuzen
typo lover
 
Chikuzen's Avatar
 
Join Date: May 2009
Posts: 597
Revision 3824
Modified Fri Nov 11 11:24:42 2011 UTC by XhmikosR
* fix x64 compilation
* use w32threads for both x86 and x64 builds
@devs: see ffmpeg/todo.txt

Revision 3827
Modified Sun Nov 13 11:29:01 2011 UTC by Aleksoid
Fix : Revert 3824 & fix x64 build linked error;

...wtf
How about forking MPC-HC like FFmpeg
__________________
my repositories
Chikuzen is offline  
Old 13th November 2011, 16:47   #18431  |  Link
pacemaker1000
Registered User
 
Join Date: Mar 2011
Posts: 90
i would be extremely greatful if someone can sort this for me

i need to find a way to output AAC to my new amp over HDMI
previously i just used AC3Filter which i believe transcoded to ac3 and output over spdif. This does not work in HDMI.
I tried Reclock which worked but is causing problems of its own

problem is if i set 5.1 channel in the HDMI playback option this works for all multichannel formats but i watch a lot ov tV through MCE and all stereo formats just then output through L&R speakers and i cant use Prologic

Thanks
pacemaker1000 is offline  
Old 13th November 2011, 20:33   #18432  |  Link
tetsuo55
MPC-HC Project Manager
 
Join Date: Mar 2007
Posts: 2,317
Everyone,

We can solve this ffmpeg issue much faster if we agree to do 2 things.

1. Stop statically linking ffmpeg, this alone might already solve the problems we're having
2. Use LAV decoders instead of MPC decoders, once we accept to keep ffmpeg externally its easy to use LAV. This will remove our reliance from porting over the ffdshow ffmpeg all the time. And LAV's ffmpeg.dll is as vanilla as possible (and has its own fork repository)

Aleksoid: Do you think you can port over our DXVA code to LAVvideo? DXVA will be needed to be feature complete compared to the current mpcvideodec.
__________________
MPC-HC, an open source project everyone can improve. Want to help? Test Nightly Builds, submit patches or bugs and chat on IRC

Last edited by tetsuo55; 13th November 2011 at 20:39.
tetsuo55 is offline  
Old 13th November 2011, 21:01   #18433  |  Link
Keiyakusha
契約者
 
Keiyakusha's Avatar
 
Join Date: Jun 2008
Posts: 1,576
Nice idea. Since LAV is pretty mature already and even beats some commercial decoders for some formats, its about time to switch to it.
Keiyakusha is offline  
Old 13th November 2011, 21:55   #18434  |  Link
Aleksoid1978
Registered User
 
Aleksoid1978's Avatar
 
Join Date: Apr 2008
Location: Russia, Vladivostok
Posts: 2,206
Quote:
Originally Posted by tetsuo55 View Post
Aleksoid: Do you think you can port over our DXVA code to LAVvideo?
No - i can't
__________________
I7 2600K@4.2 /Asrock P67 Extreme4 Gen 3 /Kingston HyperX 8Gb 1866 (4x2) Kit /OCZ Vertex 3 256Gb /Gigabyte GTX 960 /BenQ EW2430 /LG 47LM620T /Yamaha RX-V471 + NS-555 + NS-C444 + NS-333 + YST-SW215
Aleksoid1978 is offline  
Old 14th November 2011, 01:09   #18435  |  Link
Revenent
Registered User
 
Join Date: Sep 2011
Posts: 3
Quote:
Originally Posted by Aleksoid1978 View Post
Try in decoder setting set Thread Count = 1.

P.S. Big thanks to XhmikosR ... for this bug, after rev.3824
Results! Thanks for the help!

Now my nephews can watch the latest exploits of McQueen and Mater.
Revenent is offline  
Old 14th November 2011, 01:50   #18436  |  Link
Aleksoid1978
Registered User
 
Aleksoid1978's Avatar
 
Join Date: Apr 2008
Location: Russia, Vladivostok
Posts: 2,206
Quote:
Originally Posted by tetsuo55 View Post
Everyone,

We can solve this ffmpeg issue much faster if we agree to do 2 things.

1. Stop statically linking ffmpeg, this alone might already solve the problems we're having
Why you think so ???

I am against the use of external .dll
__________________
I7 2600K@4.2 /Asrock P67 Extreme4 Gen 3 /Kingston HyperX 8Gb 1866 (4x2) Kit /OCZ Vertex 3 256Gb /Gigabyte GTX 960 /BenQ EW2430 /LG 47LM620T /Yamaha RX-V471 + NS-555 + NS-C444 + NS-333 + YST-SW215
Aleksoid1978 is offline  
Old 14th November 2011, 05:30   #18437  |  Link
Aleksoid1978
Registered User
 
Aleksoid1978's Avatar
 
Join Date: Apr 2008
Location: Russia, Vladivostok
Posts: 2,206
Quote:
Originally Posted by Revenent View Post
Results! Thanks for the help!

Now my nephews can watch the latest exploits of McQueen and Mater.
Get from here - http://aleksoid.tosei.ru/Test/3829/
and can set Thread Number = you processor Core
__________________
I7 2600K@4.2 /Asrock P67 Extreme4 Gen 3 /Kingston HyperX 8Gb 1866 (4x2) Kit /OCZ Vertex 3 256Gb /Gigabyte GTX 960 /BenQ EW2430 /LG 47LM620T /Yamaha RX-V471 + NS-555 + NS-C444 + NS-333 + YST-SW215
Aleksoid1978 is offline  
Old 14th November 2011, 09:26   #18438  |  Link
kirakami
Registered User
 
Join Date: Aug 2011
Posts: 76
Quote:
Originally Posted by Aleksoid1978 View Post
Why you think so ???

I am against the use of external .dll
use PotPlayer
kirakami is offline  
Old 14th November 2011, 09:48   #18439  |  Link
LigH
German doom9/Gleitz SuMo
 
LigH's Avatar
 
Join Date: Oct 2001
Location: Germany, rural Altmark
Posts: 5,881
Quote:
Originally Posted by kasper93 View Post
There is weird problem with subtitle font size setting. When I set "16", apply and than go back to settings there is in fact set "15". And it happens whit almost all sizes...
Just a guess into the blue ... it might be related to some rounding error between "point to pixel" size and "pixel to point" size back.

Font sizes are a confusing thing under Windows, it supports different scales, as far as I remember, trying to be independent of the resolution (dpi) the display or printer has.
__________________

New German Gleitz board
MediaFire: x264 | x265 | VPx | AOM | Xvid
LigH is offline  
Old 14th November 2011, 12:20   #18440  |  Link
kasper93
MPC-HC Developer
 
Join Date: May 2010
Location: Poland
Posts: 556
Quote:
Originally Posted by LigH View Post
Just a guess into the blue ... it might be related to some rounding error between "point to pixel" size and "pixel to point" size back.

Font sizes are a confusing thing under Windows, it supports different scales, as far as I remember, trying to be independent of the resolution (dpi) the display or printer has.
I forgot to mention that that was introduced after changes in rev 3808 so maybe @JanWillem32 knows more about this.
kasper93 is offline  
Closed Thread

Tags
dxva, h264, home cinema, media player classic, mpc-hc

Thread Tools Search this Thread
Search this Thread:

Advanced Search
Display Modes

Posting Rules
You may not post new threads
You may not post replies
You may not post attachments
You may not edit your posts

BB code is On
Smilies are On
[IMG] code is On
HTML code is Off

Forum Jump


All times are GMT +1. The time now is 06:44.


Powered by vBulletin® Version 3.8.11
Copyright ©2000 - 2019, vBulletin Solutions Inc.