Welcome to Doom9's Forum, THE in-place to be for everyone interested in DVD conversion.

Before you start posting please read the forum rules. By posting to this forum you agree to abide by the rules.

 

Go Back   Doom9's Forum > Video Encoding > MPEG-4 Encoder GUIs

Reply
 
Thread Tools Search this Thread Display Modes
Old 8th September 2014, 20:01   #13201  |  Link
god_md5
Registered User
 
Join Date: Feb 2008
Posts: 38
i test this file in new ver, output file audio is not sysc
is mpeg2 mkv is not support ?

General
Unique ID : 171435581583958161567804975391055812920 (0x80F94AC134E31002BADE9C7943EC1938)
Complete name : C:\140908 secret.mkv
Format : Matroska
Format version : Version 4 / Version 2
File size : 461 MiB
Duration : 3mn 41s
Overall bit rate mode : Variable
Overall bit rate : 17.4 Mbps
Encoded date : UTC 2014-09-08 12:28:49
Writing application : mkvmerge v7.1.0 ('Good Love') 64bit built on Jul 27 2014 13:06:55
Writing library : libebml v1.3.0 + libmatroska v1.4.1
DURATION : 00:03:41.472000000
NUMBER_OF_FRAMES : 6921
NUMBER_OF_BYTES : 10630656
_STATISTICS_WRITING_APP : mkvmerge v7.1.0 ('Good Love') 64bit built on Jul 27 2014 13:06:55
_STATISTICS_WRITING_DATE_UTC : 2014-09-08 12:28:49
_STATISTICS_TAGS : BPS DURATION NUMBER_OF_FRAMES NUMBER_OF_BYTES

Video
ID : 1
Format : MPEG Video
Format version : Version 2
Format profile : Main@High
Format settings, BVOP : No
Format settings, Matrix : Custom
Codec ID : V_MPEG2
Codec ID/Info : MPEG 1 or 2 Video
Duration : 3mn 41s
Bit rate mode : Variable
Bit rate : 16.7 Mbps
Maximum bit rate : 65.0 Mbps
Width : 1 920 pixels
Height : 1 080 pixels
Display aspect ratio : 16:9
Frame rate mode : Constant
Frame rate : 29.970 fps
Color space : YUV
Chroma subsampling : 4:2:0
Bit depth : 8 bits
Scan type : Interlaced
Scan order : Top Field First
Compression mode : Lossy
Bits/(Pixel*Frame) : 0.269
Time code of first frame : 17:18:05;05
Time code source : Group of pictures header
Stream size : 442 MiB (96%)
Default : Yes
Forced : No

Audio
ID : 2
Format : AC-3
Format/Info : Audio Coding 3
Mode extension : CM (complete main)
Format settings, Endianness : Big
Codec ID : A_AC3
Duration : 3mn 41s
Bit rate mode : Constant
Bit rate : 384 Kbps
Channel(s) : 2 channels
Channel positions : Front: L R
Sampling rate : 48.0 KHz
Bit depth : 16 bits
Compression mode : Lossy
Delay relative to video : -446ms
Stream size : 10.2 MiB (2%)
Language : Korean
Default : Yes
Forced : No
god_md5 is offline   Reply With Quote
Old 9th September 2014, 11:35   #13202  |  Link
god_md5
Registered User
 
Join Date: Feb 2008
Posts: 38
maybe the audio delay is mkvmerge bug

http://forum.doom9.org/showthread.ph...67#post1692567

This has been fixed in mkvmerge:
https://www.bunkus.org/videotools/mkvtoolnix/win32/pre/
god_md5 is offline   Reply With Quote
Old 9th September 2014, 14:44   #13203  |  Link
Atak_Snajpera
RipBot264 author
 
Atak_Snajpera's Avatar
 
Join Date: May 2006
Location: Poland
Posts: 6,193
Post some 50-100 MB sample of ORIGINAL UNTOUCHED file and I will take a look. Use mkvmerge gui (mmg.exe) to prepare sample and send it to mediafire or mega.
Atak_Snajpera is offline   Reply With Quote
Old 9th September 2014, 15:10   #13204  |  Link
sneaker_ger
Registered User
 
Join Date: Dec 2002
Posts: 4,597
Quote:
Originally Posted by god_md5 View Post
maybe the audio delay is mkvmerge bug
That bug was only related to mp4 sources.

This problem must be in the way RipBot treats the input. If MediaInfo reports a negative audio delay in mkv it likely actually means a positive video delay, i.e.:
First video timestamp: +446 ms
First audio timestamp: +0 ms

RipBot does not seem to handle that.
sneaker_ger is offline   Reply With Quote
Old 12th September 2014, 11:52   #13205  |  Link
glas-klar
NAS-Tiger
 
Join Date: Sep 2014
Location: Germany
Posts: 2
Multicore Prozessor

Hi,

I`m just using ripbot264 with a PC System with Quad Core 3,4 GHZ.
But now, I want to buy a new PC (or Mac) The performance with ripbot is my most important criterium.
My Questions:
- Does ripbot support also 6-Core or more?
- What is the best hardware configuration for Ripbot?

Thanks in advance,
Glas-Klar
glas-klar is offline   Reply With Quote
Old 12th September 2014, 13:11   #13206  |  Link
Wishbringer
Silent Reader
 
Wishbringer's Avatar
 
Join Date: Dec 2003
Location: Germany
Posts: 268
@glas-klar:
there is no "best"!

x264 scales good even on newest 18 core Intel Xeon Multiprocessor CPUs.
RipBot even supports multicomputer encodes.

So Question is, what is an optimal relation between price and power.

Imho Intel Xeon E3-1231v3 Multiracks...
Wishbringer is offline   Reply With Quote
Old 13th September 2014, 20:27   #13207  |  Link
73ChargerFan
Registered User
 
73ChargerFan's Avatar
 
Join Date: Dec 2006
Posts: 506
Just upgraded from 1.17.4 to 1.18.0 and it converts m2ts file to mkv as a first step? Can I skip that and do the old analysis step instead? The stream I'm having problems with is 60i extra from a blu-ray with mixed 29.97 & 23.96 portions (I think) and I always used RipBot264 previously to decimate and "clean up" mixed up streams like this.

Also what if I try to do a full blu-ray movie? Would it copy and convert a 40GB m2ts into a mkv beforehand?

Are there links to earlier versions? The last copy I have is 1.17.0.

Thanks

Last edited by 73ChargerFan; 13th September 2014 at 20:30.
73ChargerFan is offline   Reply With Quote
Old 13th September 2014, 21:41   #13208  |  Link
Atak_Snajpera
RipBot264 author
 
Atak_Snajpera's Avatar
 
Join Date: May 2006
Location: Poland
Posts: 6,193
File won't be remuxed if you change file extension from .m2ts to .mts.
Atak_Snajpera is offline   Reply With Quote
Old 13th September 2014, 21:43   #13209  |  Link
soneca
Registered User
 
Join Date: Feb 2008
Location: Brazil
Posts: 743
Quote:
Are there links to earlier versions? The last copy I have is 1.17.0.
Old Versions
soneca is offline   Reply With Quote
Old 13th September 2014, 23:10   #13210  |  Link
73ChargerFan
Registered User
 
73ChargerFan's Avatar
 
Join Date: Dec 2006
Posts: 506
Thanks. I misunderstood my problem, but am trying to find a solution and learn along the way.

The stream contains mixed interlaced and progressive elements, 64.37% VIDEO per DGIndex. It's an extras feature on a blu-ray.

I think the encode is 1 minute longer than the original:
orig is 21mn 14s and the audio is in sync throughout
muxed raw encode with ac3 is 22mn 8s (39813 frames) and the audio lags 1 minute by the end.
Is this a result of the mixed video / film? Am I just hosed with this stream?

Is there a tool that will actually count the number of frames?

This may be a mkvtoolnix bug, not sure yet. More info below:

job1.avs:
Code:
#MT


#VideoSource
 
video=DirectShowSource("C:\Temp\RipBot264temp\job1\video.mkv",audio=false).ConvertToYV12()

#Deinterlace
LoadCplugin("C:\Apps\Ripbot264\Tools\AviSynth plugins\Yadif\Yadif.dll")
video=yadif(video,mode=0,order=1)
 
#Decimate



#Crop



#Resize



#Colors



#Denoise




#Subtitles



#AudioSource
LoadPlugin("C:\Apps\Ripbot264\tools\AviSynth plugins\NicAudio\NicAudio.dll")
audio=NicAC3Source("C:\Temp\RipBot264temp\job1\audio_Undetermined.ac3")
audio=ResampleAudio(audio,48000)
#DownMix



#Delay
audio=DelayAudio(audio,0)


#Tempo



#Normalize



#AudioDub
audio=ConvertAudioTo16bit(audio)
AudioDub(video,audio)

#Triming



#AVSameLength
Trim(0,38181)


#ColorSpace
00005.d2v:
Code:
DGIndexProjectFile16
1
D:\1\00005.m2ts

Stream_Type=2
MPEG2_Transport_PID=1011,1100,1001
Transport_Packet_Size=192
MPEG_Type=2
iDCT_Algorithm=6
YUVRGB_Scale=1
Luminance_Filter=0,0
Clipping=0,0,0,0
Aspect_Ratio=4:3
Picture_Size=720x480
Field_Operation=0
Frame_Rate=29970 (30000/1001)
Location=0,0,0,70ab5

d00 5 0 768 0 0 0 b2 b2 92 b2 b2 a2 b2 b2 a2 b2 b2 a2
900 5 0 215232 0 0 0 32 32 92 b2 b2 a2 b2 b2 a2 b2 b2 a2
900 5 0 440832 0 0 0 32 32 92 b2 b2 a2 b2 b2 a2 b2 b2 a2
900 5 0 770688 0 0 0 32 32 92 b2 b2 a2 f3 b0 e1 b2 f3 a0
900 5 0 1149504 0 0 0 71 32 d3 b0 f1 a2 f3 b0 e1 b2 f3 a0
900 5 0 1525248 0 0 0 71 32 d3 b0 f1 a2 f3 b0 e1 b2 f3 a0
...
...
...
900 5 0 944651136 0 0 0 30 30 90 b0 b0 a0 b0 b0 a0 b0 b0 a0
900 5 0 944867904 0 0 0 30 30 90 f1 b2 a2 b2 b2 a2 b2 b2 a2
900 5 0 945044736 0 0 0 32 32 92 b2 a2 ff

FINISHED  64.37% VIDEO
73ChargerFan is offline   Reply With Quote
Old 15th September 2014, 16:46   #13211  |  Link
PNC
Registered User
 
Join Date: Feb 2008
Posts: 11
i have mp4 file. openes in every player, ok!

try to coded in ripbot -
File could not be opened!
(C:\Temp\RipBot264temp\job1\getinfo.avs, line 4)


wtf? anyone can help me?!!!

Last edited by PNC; 18th September 2014 at 12:15.
PNC is offline   Reply With Quote
Old 16th September 2014, 02:05   #13212  |  Link
Kamenizer
Registered User
 
Join Date: Sep 2014
Posts: 3
Hardcode subtitles

In previous versions, when I choose the option to hardcode subtitles, automatically opened the folder where was the job (generally job1) and the subtitle track was right there, because the program extracted it when you added a video; but now it doesn't, I have to extract the subtitle with other program and then choose the folder where is extracted. I know is something meaningless, but it was very practical for me. It's no fault of my PC, because I tried previous versions and all of them, except the 1.18 extract the subtitles. Very great program, many thanks for all your work.
Kamenizer is offline   Reply With Quote
Old 16th September 2014, 13:07   #13213  |  Link
burt123
Registered User
 
Join Date: Jun 2010
Posts: 209
Quote:
Originally Posted by glas-klar View Post
Hi,

I`m just using ripbot264 with a PC System with Quad Core 3,4 GHZ.
But now, I want to buy a new PC (or Mac) The performance with ripbot is my most important criterium.
My Questions:
- Does ripbot support also 6-Core or more?
- What is the best hardware configuration for Ripbot?

Thanks in advance,
Glas-Klar
Ripbot 1.18.0 runs VERY well on my Xeon E5-2697 v2, 12 core.

Does Ripbot work with Mac OSX Mavericks (Hackintosh) ???
burt123 is offline   Reply With Quote
Old 16th September 2014, 19:36   #13214  |  Link
george84
Registered User
 
Join Date: Jan 2012
Posts: 89
x265_x86.exe is not valid win32 program

RipBot264 1.18.0

I try to encode HEVC and get above error message. A look at directory .../tools/x265 shows that both exe files have same size and date.

Is HEVC only possible on x64 machines?
george84 is offline   Reply With Quote
Old 16th September 2014, 21:49   #13215  |  Link
agressiv
Registered Loser
 
agressiv's Avatar
 
Join Date: Dec 2004
Posts: 102
Bug/Requests

Bug?: TrueHD streams in MKV no longer detecting; showing as [NO AUDIO]. Not sure if something in ffdshow needs to be tweaked; I tried a bunch of settings to no avail. It used to automatically transcode TrueHD to flac.

Request: Detect OPUS streams in MKV. (Same result) I have to manually de-mux streams in advance, and manually add OPUS.

Somewhat related question - how do I save the Audio profile? Or do you have to set that manually every time?
agressiv is offline   Reply With Quote
Old 16th September 2014, 22:06   #13216  |  Link
Atak_Snajpera
RipBot264 author
 
Atak_Snajpera's Avatar
 
Join Date: May 2006
Location: Poland
Posts: 6,193
All those bugs have been fixed in my local version. New version tomorrow.
Atak_Snajpera is offline   Reply With Quote
Old 17th September 2014, 18:45   #13217  |  Link
hoju3508
Registered User
 
Join Date: Nov 2007
Location: Austin, TX
Posts: 197
Quote:
Originally Posted by PNC View Post
i have mp4 file. openes in every player, ok!

try to coded in ripbot -
File could not be opened!
(C:\Temp\RipBot264temp\job1\getinfo.avs, line 4)

wtf? anyone can help me?!!!
Do you have a small sample of the file that you can share?
__________________
http://valid.canardpc.com/cache/banner/1756465.png
hoju3508 is offline   Reply With Quote
Old 18th September 2014, 00:20   #13218  |  Link
j6
Registered User
 
Join Date: Oct 2001
Posts: 21
I installed Ripbot 1.18.1 on a new PC. It prompted me to install avisynth and ffdshow which i did. Now when I try to play .webm files in MPC-HC it only plays the audio. It was playing both audio and video before I installed the avisynth and ffdshow. Is there some settings I have to change to get .webm files playing correctly again?
j6 is offline   Reply With Quote
Old 18th September 2014, 01:07   #13219  |  Link
Marchand
Registered User
 
Marchand's Avatar
 
Join Date: Jan 2013
Location: Brazil
Posts: 14
Atak_Snajpera

Great Software...Thanks..

Quote:
C:\>"C:\Users\Marchand\Downloads\RipBot264v1.18.1\tools\avs2yuv\avs2yuv.exe" "C:\Temp\RipBot264temp\job1\job1.avs" -o - | "C:\Users\Marchand\Downloads\RipBot264v1.18.1\tools\x265\x265_x64.exe" --crf 16 --fps 24000/1001 --min-keyint 24 --keyint 240 --frames 179 --sar 1:1 --y4m --output "C:\Temp\RipBot264temp\video.265" -
y4m [info]: 1920x1080 fps 24000/1001 i420p8 sar 1:1 unknown frame count
x265 [info]: HEVC encoder version 1.3+199-7c1aba99f40d
x265 [info]: build info [Windows][ICC 1400][64 bit] 16bpp
x265 [info]: using cpu capabilities: MMX2 SSE2Fast SSSE3 SSE4.1 Cache64
x265 [info]: WPP streams / pool / frames : 35 / 4 / 2
x265 [info]: Main10 profile, Level-4 (Main tier)
x265 [info]: Internal bit depth : 10
x265 [info]: CU size : 64
x265 [info]: Max RQT depth inter / intra : 1 / 1
x265 [info]: ME / range / subpel / merge : hex / 57 / 2 / 2
x265 [info]: Keyframe min / max / scenecut : 24 / 240 / 40
x265 [info]: Lookahead / bframes / badapt : 20 / 4 / 2
x265 [info]: b-pyramid / weightp / weightb / refs: 1 / 1 / 0 / 3
x265 [info]: Rate Control / AQ-Strength / CUTree : CRF-16.0 / 1.0 / 1
x265 [info]: tools: rd=3 lft sao-lcu signhide
C:\Temp\RipBot264temp\job1\job1.avs: 1920x1080, 10000000/417083 fps, 179 frames

encoded 179 frames in 230.06s (0.78 fps), 6888.01 kb/s

x265 [info]: frame I: 2, Avg QP:14.47 kb/s: 4346.95
x265 [info]: frame P: 52, Avg QP:15.66 kb/s: 16186.58
x265 [info]: frame B: 125, Avg QP:19.76 kb/s: 3060.46
x265 [info]: global : 179, Avg QP:18.51 kb/s: 6888.01
x265 [info]: Weighted P-Frames: Y:13.5% UV:13.5%
x265 [info]: consecutive B-frames: 9.3% 9.3% 25.9% 51.9% 3.7%

C:\>"C:\Users\Marchand\Downloads\RipBot264v1.18.1\tools\mkvtoolnix\mkvmerge.exe" -o "C:\Users\Marchand\Desktop\video.mkv" --compression 0:none --title "video" --default-duration 0:24000/1001fps "C:\Temp\RipBot264temp\video.265" --compression 0:none --language 0:und --aac-is-sbr 0:0 "C:\Temp\RipBot264temp\job1\Encoded_Audio_1.aac"
mkvmerge v7.2.0 ('On Every Street') 32bit built on Sep 13 2014 15:42:11
'C:\Temp\RipBot264temp\video.265': Using the demultiplexer for the format 'HEVC/h.265'.
'C:\Temp\RipBot264temp\job1\Encoded_Audio_1.aac': Using the demultiplexer for the format 'AAC'.
'C:\Temp\RipBot264temp\video.265' track 0: Using the output module for the format 'HEVC/h.265 (unframed)'.
'C:\Temp\RipBot264temp\job1\Encoded_Audio_1.aac' track 0: Using the output module for the format 'AAC'.
The file 'C:\Users\Marchand\Desktop\video.mkv' has been opened for writing.
'C:\Temp\RipBot264temp\video.265' track 0: Extracted the aspect ratio information from the HEVC video data and set the display dimensions to 1920/1080.

The cue entries (the index) are being written...
Muxing took 0 seconds.
-------------------------

Elapsed Time: 00h:03m:53s
Marchand is offline   Reply With Quote
Old 18th September 2014, 12:17   #13220  |  Link
PNC
Registered User
 
Join Date: Feb 2008
Posts: 11
Quote:
Originally Posted by hoju3508 View Post
Do you have a small sample of the file that you can share?
i have mediainfo:

General
Complete name : C:\Temp\asd.mp4
Format : MPEG-4
Format profile : Base Media / Version 2
Codec ID : mp42
File size : 2.15 GiB
Duration : 30mn 14s
Overall bit rate mode : Variable
Overall bit rate : 10.2 Mbps
Encoded date : UTC 2014-01-02 19:13:21
Tagged date : UTC 2014-01-02 19:13:21

Video
ID : 1
Format : AVC
Format/Info : Advanced Video Codec
Format profile : High@L5.0
Format settings, CABAC : Yes
Format settings, ReFrames : 5 frames
Codec ID : avc1
Codec ID/Info : Advanced Video Coding
Duration : 30mn 14s
Bit rate mode : Constant
Bit rate : 10 000 Kbps
Width : 1 920 pixels
Height : 1 080 pixels
Display aspect ratio : 16:9
Frame rate mode : Constant
Frame rate : 25.000 fps
Standard : PAL
Color space : YUV
Chroma subsampling : 4:2:0
Bit depth : 8 bits
Scan type : Progressive
Bits/(Pixel*Frame) : 0.193
Stream size : 2.11 GiB (98%)
Language : English
Encoded date : UTC 2014-01-02 19:13:21
Tagged date : UTC 2014-01-02 19:13:21
Color primaries : BT.709
Transfer characteristics : BT.709
Matrix coefficients : BT.709

Audio
ID : 2
Format : AAC
Format/Info : Advanced Audio Codec
Format profile : LC
Codec ID : 40
Duration : 30mn 14s
Bit rate mode : Variable
Bit rate : 160 Kbps
Maximum bit rate : 326 Kbps
Channel count : 2 channels
Channel positions : Front: L R
Sampling rate : 48.0 KHz
Compression mode : Lossy
Stream size : 34.6 MiB (2%)
Language : English
Encoded date : UTC 2014-01-02 19:13:21
Tagged date : UTC 2014-01-02 19:13:21

sample I will try to cut today evening.
PNC is offline   Reply With Quote
Reply

Tags
264, 265, appletv, avchd, bluray, gui, iphone, ipod, ps3, psp, ripbot264, x264 2-pass, x264 gui, x264_64, x265, xbox360

Thread Tools Search this Thread
Search this Thread:

Advanced Search
Display Modes

Posting Rules
You may not post new threads
You may not post replies
You may not post attachments
You may not edit your posts

BB code is On
Smilies are On
[IMG] code is On
HTML code is Off

Forum Jump


All times are GMT +1. The time now is 10:37.


Powered by vBulletin® Version 3.8.11
Copyright ©2000 - 2017, vBulletin Solutions Inc.