Welcome to Doom9's Forum, THE in-place to be for everyone interested in DVD conversion.

Before you start posting please read the forum rules. By posting to this forum you agree to abide by the rules.

 

Go Back   Doom9's Forum > General > Linux, Mac OS X, & Co

 
 
Thread Tools Search this Thread Display Modes
Prev Previous Post   Next Post Next
Old 29th May 2018, 10:13   #1  |  Link
LigH
German doom9/Gleitz SuMo
 
LigH's Avatar
 
Join Date: Oct 2001
Location: Germany, rural Altmark
Posts: 5,494
ffmpeg and VA-API: How to handle YUV 4:2:2 MJPG?

The question was originally posted in the German doom9/Gleitz board, but we seem to lack of experts, so I will forward it here (because the original poster is not fluent in English and also has to wait for 5 days after registration):

Quote:
Originally Posted by ggrub
Hi,

my system:
Code:
Kernel: 4.16.11-1-ARCH 
Resolution: 2560x1440 
Terminal: xfce4-terminal 
CPU: Intel i7-6700K (8) @ 4.200GHz 
GPU: Intel HD Graphics 530 
GPU: NVIDIA GeForce GTX 750 Ti 
Memory: 31094MiB
Code:
 vainfo
libva info: VA-API version 1.1.0
libva info: va_getDriverName() returns 0
libva info: Trying to open /usr/lib/dri/i965_drv_video.so
libva info: Found init function __vaDriverInit_1_1
libva info: va_openDriver() returns 0
vainfo: VA-API version: 1.1 (libva 2.1.0)
vainfo: Driver version: Intel i965 driver for Intel(R) Skylake - 2.1.0
vainfo: Supported profile and entrypoints
      VAProfileMPEG2Simple            :    VAEntrypointVLD
      VAProfileMPEG2Simple            :    VAEntrypointEncSlice
      VAProfileMPEG2Main              :    VAEntrypointVLD
      VAProfileMPEG2Main              :    VAEntrypointEncSlice
      VAProfileH264ConstrainedBaseline:    VAEntrypointVLD
      VAProfileH264ConstrainedBaseline:    VAEntrypointEncSlice
      VAProfileH264ConstrainedBaseline:    VAEntrypointEncSliceLP
      VAProfileH264ConstrainedBaseline:    VAEntrypointFEI
      VAProfileH264ConstrainedBaseline:    VAEntrypointStats
      VAProfileH264Main               :    VAEntrypointVLD
      VAProfileH264Main               :    VAEntrypointEncSlice
      VAProfileH264Main               :    VAEntrypointEncSliceLP
      VAProfileH264Main               :    VAEntrypointFEI
      VAProfileH264Main               :    VAEntrypointStats
      VAProfileH264High               :    VAEntrypointVLD
      VAProfileH264High               :    VAEntrypointEncSlice
      VAProfileH264High               :    VAEntrypointEncSliceLP
      VAProfileH264High               :    VAEntrypointFEI
      VAProfileH264High               :    VAEntrypointStats
      VAProfileH264MultiviewHigh      :    VAEntrypointVLD
      VAProfileH264MultiviewHigh      :    VAEntrypointEncSlice
      VAProfileH264StereoHigh         :    VAEntrypointVLD
      VAProfileH264StereoHigh         :    VAEntrypointEncSlice
      VAProfileVC1Simple              :    VAEntrypointVLD
      VAProfileVC1Main                :    VAEntrypointVLD
      VAProfileVC1Advanced            :    VAEntrypointVLD
      VAProfileNone                   :    VAEntrypointVideoProc
      VAProfileJPEGBaseline           :    VAEntrypointVLD
      VAProfileJPEGBaseline           :    VAEntrypointEncPicture
      VAProfileVP8Version0_3          :    VAEntrypointVLD
      VAProfileVP8Version0_3          :    VAEntrypointEncSlice
      VAProfileHEVCMain               :    VAEntrypointVLD
      VAProfileHEVCMain               :    VAEntrypointEncSlice
Why is it not possible to decode this AVI file?

Code:
General
Complete name                            : /media/a5_Lwork/va/test_01_.avi
Format                                   : AVI
Format/Info                              : Audio Video Interleave
File size                                : 30.6 MiB
Duration                                 : 4 s 120 ms
Overall bit rate                         : 62.3 Mb/s

Video
ID                                       : 0
Format                                   : JPEG
Codec ID                                 : MJPG
Duration                                 : 4 s 120 ms
Bit rate                                 : 59.2 Mb/s
Width                                    : 1 920 pixels
Height                                   : 1 080 pixels
Display aspect ratio                     : 16:9
Frame rate                               : 25.000 FPS
Color space                              : YUV
Chroma subsampling                       : 4:2:2
Bit depth                                : 8 bits
Scan type                                : Progressive
Compression mode                         : Lossy
Bits/(Pixel*Frame)                       : 1.142
Stream size                              : 29.1 MiB (95%)

Audio
ID                                       : 1
Format                                   : PCM
Format profile                           : Float
Codec ID                                 : 00000003-0000-0010-8000-00AA00389B71
Codec ID/Hint                            : IEEE 
Duration                                 : 4 s 120 ms
Bit rate mode                            : Constant
Bit rate                                 : 3 072 kb/s
Channel(s)                               : 2 channels
Channel positions                        : Front: L R
Sampling rate                            : 48.0 kHz
Bit depth                                : 32 bits
Stream size                              : 1.51 MiB (5%)
Alignment                                : Aligned on interleaves
Interleave, duration                     : 45  ms (1.12 video frame)
Interleave, preload duration             : 500  ms
Code:
$ ffmpeg -hwaccel vaapi -hwaccel_device /dev/dri/renderD129 -hwaccel_output_format vaapi -i test_01_.avi -f null -
ffmpeg version 4.0 Copyright (c) 2000-2018 the FFmpeg developers
  built with gcc 8.1.0 (GCC)
  configuration: --prefix=/usr --disable-debug --disable-static --disable-stripping --enable-avresample --enable-fontconfig --enable-gmp --enable-gnutls --enable-gpl --enable-ladspa
 --enable-libass --enable-libbluray --enable-libdrm --enable-libfreetype --enable-libfribidi --enable-libgsm --enable-libiec61883 --enable-libmodplug --enable-libmp3lame
 --enable-libopencore_amrnb --enable-libopencore_amrwb --enable-libopenjpeg --enable-libopus --enable-libpulse --enable-libsoxr --enable-libspeex --enable-libssh --enable-libtheora
 --enable-libv4l2 --enable-libvidstab --enable-libvorbis --enable-libvpx --enable-libwebp --enable-libx264 --enable-libx265 --enable-libxcb --enable-libxml2 --enable-libxvid
 --enable-nvenc --enable-omx --enable-shared --enable-version3
  libavutil      56. 14.100 / 56. 14.100
  libavcodec     58. 18.100 / 58. 18.100
  libavformat    58. 12.100 / 58. 12.100
  libavdevice    58.  3.100 / 58.  3.100
  libavfilter     7. 16.100 /  7. 16.100
  libavresample   4.  0.  0 /  4.  0.  0
  libswscale      5.  1.100 /  5.  1.100
  libswresample   3.  1.100 /  3.  1.100
  libpostproc    55.  1.100 / 55.  1.100
Input #0, avi, from 'test_01_.avi':
  Duration: 00:00:04.12, start: 0.000000, bitrate: 62304 kb/s
    Stream #0:0: Video: mjpeg (MJPG / 0x47504A4D), yuvj422p(pc, bt470bg/unknown/unknown), 1920x1080, 59783 kb/s, 25 fps, 25 tbr, 25 tbn, 25 tbc
    Stream #0:1: Audio: pcm_f32le ([3][0][0][0] / 0x0003), 48000 Hz, stereo, flt, 3072 kb/s
Stream mapping:
  Stream #0:0 -> #0:0 (mjpeg (native) -> wrapped_avframe (native))
  Stream #0:1 -> #0:1 (pcm_f32le (native) -> pcm_s16le (native))
Press [q] to stop, [?] for help
ffmpeg: gen8_mfd.c:2602: gen8_mfd_jpeg_bsd_object: Assertion `0' failed.
Abort (memory dump created)
bye ggrub
Avoiding further chroma subsampling to 4:2:0 would be preferred; but first of all, decoding this material is already an issue in certain combinations of ffmpeg parameters, resulting in green/purple garbage.
__________________

New German Gleitz board
MediaFire: x264 | x265 | VPx | AOM | Xvid

Last edited by LigH; 29th May 2018 at 10:15.
LigH is offline   Reply With Quote
 

Thread Tools Search this Thread
Search this Thread:

Advanced Search
Display Modes

Posting Rules
You may not post new threads
You may not post replies
You may not post attachments
You may not edit your posts

BB code is On
Smilies are On
[IMG] code is On
HTML code is Off

Forum Jump


All times are GMT +1. The time now is 10:10.


Powered by vBulletin® Version 3.8.11
Copyright ©2000 - 2018, vBulletin Solutions Inc.