Welcome to Doom9's Forum, THE in-place to be for everyone interested in DVD conversion.

Before you start posting please read the forum rules. By posting to this forum you agree to abide by the rules.

 

Go Back   Doom9's Forum > Capturing and Editing Video > New and alternative a/v containers

 
 
Thread Tools Search this Thread Display Modes
Prev Previous Post   Next Post Next
Old 21st June 2002, 19:37   #24  |  Link
nah
RV9 Convaincu !
 
Join Date: Apr 2002
Location: Toulouse
Posts: 31
Hi,

Thank's DeXT for keeping the extension (-x).
Directory for Form2 files is OK.
A bug in the cue sheet : error from Deamon 3.11 which only can handle sequantial track number :
-----------------
FILE "image.bin" BINARY
TRACK 01 MODE2/2352
INDEX 01 00:00:00
TRACK 02 MODE2/2352
INDEX 01 00:06:02
TRACK 07 MODE2/2352
INDEX 01 01:43:50
TRACK 08 MODE2/2352
INDEX 01 01:53:68
-----------------

not tested wildcards feature

I'm updating my GUI
__________________
UteamVision
nah is offline   Reply With Quote
 

Thread Tools Search this Thread
Search this Thread:

Advanced Search
Display Modes

Posting Rules
You may not post new threads
You may not post replies
You may not post attachments
You may not edit your posts

BB code is On
Smilies are On
[IMG] code is On
HTML code is Off

Forum Jump


All times are GMT +1. The time now is 21:04.


Powered by vBulletin® Version 3.8.11
Copyright ©2000 - 2018, vBulletin Solutions Inc.