Welcome to Doom9's Forum, THE in-place to be for everyone interested in DVD conversion.

Before you start posting please read the forum rules. By posting to this forum you agree to abide by the rules.

 

Go Back   Doom9's Forum > Hardware & Software > Software players

 
 
Thread Tools Search this Thread Display Modes
Prev Previous Post   Next Post Next
Old 4th June 2011, 12:38   #1  |  Link
P.J
🎸
 
Join Date: Jun 2008
Posts: 513
Playing AVCHD on Nvidia 8600 without stutter

I can't play my camcorder (Canon HF R100) or bluray AVCHD video files smoothly.
I tried most of the programs/codecs in Windows 7 x64/XP SP3 with the latest driver
The only way I found is to reinstall the graphic driver without reboot then it plays great until I don't reboot or run any program that uses GPU.
I can play with my CPU (T7500) and Splash Pro without quality loss but it uses all of my CPU.
My graphic card is 8600M GT 256MB DDR2. Here's the information of the camcorder and bluray video files:

Quote:
General
ID : 0
Format : BDAV
Format/Info : Blu-ray Video
File size : 151 MiB
Duration : 1mn 20s
Overall bit rate : 15.8 Mbps
Maximum Overall bit rate : 18.0 Mbps

Video
ID : 4113 (0x1011)
Menu ID : 1 (0x1)
Format : AVC
Format/Info : Advanced Video Codec
Format profile : High@L4.0
Format settings, CABAC : Yes
Format settings, ReFrames : 2 frames
Duration : 1mn 19s
Bit rate : 14.9 Mbps
Width : 1 920 pixels
Height : 1 080 pixels
Display aspect ratio : 16:9
Frame rate : 29.970 fps
Resolution : 8 bits
Colorimetry : 4:2:0
Scan type : Interlaced
Scan order : Top Field First
Bits/(Pixel*Frame) : 0.240
Stream size : 142 MiB (94%)

Audio
ID : 4352 (0x1100)
Menu ID : 1 (0x1)
Format : AC-3
Format/Info : Audio Coding 3
Duration : 1mn 20s
Bit rate mode : Constant
Bit rate : 256 Kbps
Channel(s) : 2 channels
Channel positions : L R
Sampling rate : 48.0 KHz
Video delay : -67ms
Stream size : 2.44 MiB (2%)
Quote:
General
ID : 0 (0x0)
Format : BDAV
Format/Info : Blu-ray Video
File size : 14.4 GiB
Duration : 1h 15mn
Overall bit rate : 27.3 Mbps
Maximum Overall bit rate : 48.0 Mbps

Video
ID : 4113 (0x1011)
Menu ID : 1 (0x1)
Format : AVC
Format/Info : Advanced Video Codec
Format profile : High@L4.1
Format settings, CABAC : Yes
Format settings, ReFrames : 4 frames
Format settings, GOP : M=1, N=24
Codec ID : 27
Duration : 1h 15mn
Bit rate mode : Variable
Bit rate : 22.4 Mbps
Maximum bit rate : 33.0 Mbps
Width : 1 920 pixels
Height : 1 080 pixels
Display aspect ratio : 16:9
Frame rate : 29.970 fps
Color space : YUV
Chroma subsampling : 4:2:0
Bit depth : 8 bits
Scan type : MBAFF
Bits/(Pixel*Frame) : 0.360
Stream size : 11.8 GiB (82%)
Color primaries : BT.709-5, BT.1361, IEC 61966-2-4, SMPTE RP177
Transfer characteristics : BT.709-5, BT.1361
Matrix coefficients : BT.709-5, BT.1361, IEC 61966-2-4 709, SMPTE RP177

Audio #1
ID : 4352 (0x1100)
Menu ID : 1 (0x1)
Format : DTS
Format/Info : Digital Theater Systems
Format profile : MA / Core
Muxing mode : Stream extension
Codec ID : 134
Duration : 1h 15mn
Bit rate mode : Variable
Bit rate : 1 576 Kbps / 1 510 Kbps
Channel(s) : 6 channels
Channel positions : Front: L C R, Side: L R, LFE
Sampling rate : 48.0 KHz
Bit depth : 24 bits
Compression mode : Lossless / Lossy

Audio #2
ID : 4353 (0x1101)
Menu ID : 1 (0x1)
Format : PCM
Format settings, Endianness : Big
Format settings, Sign : Signed
Muxing mode : Blu-ray
Codec ID : 128
Duration : 1h 15mn
Bit rate mode : Constant
Bit rate : 2 304 Kbps
Channel(s) : 2 channels
Channel positions : Front: L R
Sampling rate : 48.0 KHz
Bit depth : 24 bits
Stream size : 1.21 GiB (8%)
After reinstalling graphic driver (smooth):



Anytime else (not smooth):

P.J is offline   Reply With Quote
 

Tags
avchd, bluray, nvidia, stutter, vp2

Thread Tools Search this Thread
Search this Thread:

Advanced Search
Display Modes

Posting Rules
You may not post new threads
You may not post replies
You may not post attachments
You may not edit your posts

BB code is On
Smilies are On
[IMG] code is On
HTML code is Off

Forum Jump


All times are GMT +1. The time now is 08:45.


Powered by vBulletin® Version 3.8.11
Copyright ©2000 - 2019, vBulletin Solutions Inc.