Welcome to Doom9's Forum, THE in-place to be for everyone interested in DVD conversion.

Before you start posting please read the forum rules. By posting to this forum you agree to abide by the rules.

 

Go Back   Doom9's Forum > Capturing and Editing Video > New and alternative a/v containers

Reply
 
Thread Tools Search this Thread Display Modes
Old 3rd August 2016, 10:19   #20981  |  Link
PeQuE
Registered User
 
Join Date: Feb 2011
Posts: 26
Wow! So it's renderer which does the job?!

I'll tesd madVR then...

Thanks a lot for the info.
PeQuE is offline   Reply With Quote
Old 3rd August 2016, 15:51   #20982  |  Link
suanm
Registered User
 
Join Date: Apr 2011
Posts: 121
Mr.nevcairiel
It's very popular with HD fans that one splitter can output and display in-built two and more language subtitles (for example:english and chinese or french) at the same time when playback.I don't find LAV splitter source or LAV splitter can do the same task as I imagine.The in-built splitter in potplayer can splits two different language subtitles at the same time when playback,though.
Could you improve LAV splitter source or LAV splitter?
Thank you in advance.
suanm is offline   Reply With Quote
Old 4th August 2016, 15:25   #20983  |  Link
aufkrawall
Registered User
 
Join Date: Dec 2011
Posts: 1,713
Received a GTX 1070, 4k HEVC 10 bit 50fps works fine with DXVA2 copyback on the Sandy Bridge PCIe 2.0 platform.
(Sandy till death... or at least Zen)
Can't test anything else anymore, card is already out of the PC and will go back soon (not satisfied with the fans and performance in some games).
aufkrawall is offline   Reply With Quote
Old 5th August 2016, 09:50   #20984  |  Link
paranoya7
Registered User
 
Join Date: Mar 2013
Posts: 5
i cant play some avi files when i choose default splitter of lav splitter. i can play all avi files when i choose avi splitter. Here im adding 2 avi files nfo. First one cant play second one can play. What should i do and what is wrong? I hope someone help me.

I'm using mpc be and codec pack last versions.
Attached Images
  
paranoya7 is offline   Reply With Quote
Old 5th August 2016, 09:57   #20985  |  Link
LigH
German doom9/Gleitz SuMo
 
LigH's Avatar
 
Join Date: Oct 2001
Location: Germany, rural Altmark
Posts: 5,932
Attachments take a while to be approved; what kind of "nfo" is this, a screenshot from player internal dialogs? A MediaInfo analysis in text form could have get pasted in a CODE block much easier.

How does it "not play"? Is there any error message, or does it just not start playing?
__________________

New German Gleitz board
MediaFire: x264 | x265 | VPx | AOM | Xvid
LigH is offline   Reply With Quote
Old 5th August 2016, 11:34   #20986  |  Link
paranoya7
Registered User
 
Join Date: Mar 2013
Posts: 5
This one cant play. I click video and mpc hc window open then i have black screen just. Nothing happen. (If i choose avi splitter, everything fine)

Code:
Format                      : AVI
Format/Info                 : Audio Video Interleave
File size                   : 490 MiB
Duration                    : 1 h 36 min
Overall bit rate            : 708 kb/s
Writing application         : Lavf56.25.101

Video
ID                          : 0
Format                      : AVC
Format/Info                 : Advanced Video Codec
Format profile              : Main@L3
Format settings, CABAC      : Yes
Format settings, ReFrames   : 3 frames
Codec ID                    : H264
Duration                    : 1 h 36 min
Bit rate                    : 564 kb/s
Width                       : 854 pixels
Height                      : 480 pixels
Display aspect ratio        : 16:9
Frame rate mode             : Variable
Frame rate                  : 50.000 FPS
Color space                 : YUV
Chroma subsampling          : 4:2:0
Bit depth                   : 8 bits
Scan type                   : Progressive
Bits/(Pixel*Frame)          : 0.028
Stream size                 : 390 MiB (80%)
This one is playing without no problem.

Code:
Format                      : AVI
Format/Info                 : Audio Video Interleave
File size                   : 174 MiB
Duration                    : 20 min
Overall bit rate mode       : Variable
Overall bit rate            : 1 200 kb/s
Writing application         : Nandub v1.0rc2
Writing library             : Nandub build 1853/release

Video
ID                          : 0
Format                      : MPEG-4 Visual
Format profile              : Advanced Simple@L5
Format settings, BVOP       : 2
Format settings, QPel       : No
Format settings, GMC        : No warppoints
Format settings, Matrix     : Default (H.263)
Codec ID                    : XVID
Codec ID/Hint               : XviD
Duration                    : 20 min
Bit rate                    : 1 054 kb/s
Width                       : 512 pixels
Height                      : 384 pixels
Display aspect ratio        : 4:3
Frame rate                  : 25.000 FPS
Color space                 : YUV
Chroma subsampling          : 4:2:0
Bit depth                   : 8 bits
Scan type                   : Progressive
Compression mode            : Lossy
Bits/(Pixel*Frame)          : 0.214
Stream size                 : 153 MiB (88%)
Writing library             : XviD 1.0.3 (UTC 2004-12-20)
paranoya7 is offline   Reply With Quote
Old 10th August 2016, 01:09   #20987  |  Link
egandt
Registered User
 
Join Date: Jul 2002
Location: Maryland
Posts: 46
Quote:
Originally Posted by aufkrawall View Post
Received a GTX 1070, 4k HEVC 10 bit 50fps works fine with DXVA2 copyback on the Sandy Bridge PCIe 2.0 platform.
(Sandy till death... or at least Zen)
Can't test anything else anymore, card is already out of the PC and will go back soon (not satisfied with the fans and performance in some games).
I have a GTX 1070, using DXVA2 copyback I've tested 4k30p HEVC10, up to 400mbps, without issues.

http://jell.yfish.us/


ERIC
egandt is offline   Reply With Quote
Old 11th August 2016, 18:13   #20988  |  Link
3421
Registered User
 
Join Date: Jan 2016
Posts: 37
GTX 1070 150 watt. Hot. GTX 980 165 W, GTX 580 244 W. 150 W is still a lot.

Last edited by 3421; 11th August 2016 at 19:16.
3421 is offline   Reply With Quote
Old 12th August 2016, 09:48   #20989  |  Link
Sunset1982
Registered User
 
Join Date: Sep 2014
Posts: 277
Any news of the RX480 HEVC decoding issue? Anyone here with a RX card?
__________________
Intel i5 6600, 16 GB DDR4, AMD Vega RX56 8 GB, Windows 10 x64, Kodi DS Player 17.6, MadVR (x64), LAV Filters (x64), XySubfilter .746 (x64)
LG 4K OLED (65C8D), Denon X-4200 AVR, Dali Zensor 5.1 Set
Sunset1982 is offline   Reply With Quote
Old 12th August 2016, 11:49   #20990  |  Link
chros
Registered User
 
chros's Avatar
 
Join Date: Mar 2002
Posts: 1,457
@nevcairiel: thanks for the Weston Three Fields (simple) method, it does wonders with the caps of Olympics on my underclocked laptop!
__________________
Ryzen 5 2600,Asus Prime b450-Plus,16GB,MSI GTX 1060 Gaming X 6GB(v385.28),Win10 LTSB 1607,MPC-BEx64+LAV+MadVR,Yamaha RX-A870,LG OLED65B8(2160p@23/24/25/29/30/50/59/60Hz)
chros is offline   Reply With Quote
Old 22nd August 2016, 08:01   #20991  |  Link
mixus
Registered User
 
Join Date: Jan 2016
Posts: 13
I5 6600K + GTX 1060

DXVA2 Copy-Back

Success! ( HEVC Main10 4K 120 FPS )

Video is Converted with StaxRip.
Used AssumFPS and NVENC (rigaya)




Video
ID : 1
Format : HEVC
Format/Info : High Efficiency Video Coding
Format profile : Main 10@L6.2@Main
Codec ID : V_MPEGH/ISO/HEVC
Duration : 55 s 383 ms
Bit rate : 202 Mb/s
Width : 3 840 pixels
Height : 2 160 pixels
Display aspect ratio : 16:9
Frame rate mode : Variable
Frame rate : 120.001 FPS
Original frame rate : 120.000 FPS
Color space : YUV
Chroma subsampling : 4:2:0
Bit depth : 10 bits
Bits/(Pixel*Frame) : 0.203
Stream size : 1.30 GiB (100%)
Default : Yes
Forced : No

(Sorry for bad english, informational purposes only.)
mixus is offline   Reply With Quote
Old 24th August 2016, 23:51   #20992  |  Link
xerces8
Registered User
 
Join Date: Sep 2006
Posts: 10
Hi!

I installed 0.68.1 on Windows 8.1 64 bit and it works (had to associate files with WMP myself), but the "Play to" feature of WMP ("sending" the files to a DLNA/UPnP device like a TV) does not work. The files not natively supported by Windows do not send. (so MP3 and M4A files work fine)
I tried *.flac , *.ogg and *.opus files.

Can this be made to work? With LAV Filters? Or should try with some other codecs? (I only interested in streaming music file, the xiph dshow codec pack does not work either, the author confirmed it is a limitation of their woftware)

Regards,
David
xerces8 is offline   Reply With Quote
Old 24th August 2016, 23:55   #20993  |  Link
nevcairiel
Registered Developer
 
Join Date: Mar 2010
Location: Hamburg/Germany
Posts: 9,788
One guess would that "Play To" uses Media Foundation, so nothing a DShow decoder would handle, otherwise no idea what that does.
__________________
LAV Filters - open source ffmpeg based media splitter and decoders
nevcairiel is offline   Reply With Quote
Old 25th August 2016, 02:14   #20994  |  Link
xerces8
Registered User
 
Join Date: Sep 2006
Posts: 10
Yes, that might be the case, as "Media Foundation FLAC Codec" works for PlayTo.
So LAV is not the solution for me?
Any ideas for MF for ogg/vorbis and opus?
xerces8 is offline   Reply With Quote
Old 25th August 2016, 09:53   #20995  |  Link
chros
Registered User
 
chros's Avatar
 
Join Date: Mar 2002
Posts: 1,457
Quote:
Originally Posted by xerces8 View Post
Yes, that might be the case, as "Media Foundation FLAC Codec" works for PlayTo.
So LAV is not the solution for me?
Any ideas for MF for ogg/vorbis and opus?
I think a normal DNLA service would be the right solution, on Windows e.g. Universal Media Server , on Linux (e.g. on OpenWRT) minidlna.
__________________
Ryzen 5 2600,Asus Prime b450-Plus,16GB,MSI GTX 1060 Gaming X 6GB(v385.28),Win10 LTSB 1607,MPC-BEx64+LAV+MadVR,Yamaha RX-A870,LG OLED65B8(2160p@23/24/25/29/30/50/59/60Hz)
chros is offline   Reply With Quote
Old 26th August 2016, 13:55   #20996  |  Link
Sunset1982
Registered User
 
Join Date: Sep 2014
Posts: 277
nev, you have an idea what causes the rx480's HEVC decoder to get greenscreen? Is it LAV incompatibility or a madvr problem?
__________________
Intel i5 6600, 16 GB DDR4, AMD Vega RX56 8 GB, Windows 10 x64, Kodi DS Player 17.6, MadVR (x64), LAV Filters (x64), XySubfilter .746 (x64)
LG 4K OLED (65C8D), Denon X-4200 AVR, Dali Zensor 5.1 Set
Sunset1982 is offline   Reply With Quote
Old 27th August 2016, 16:19   #20997  |  Link
nevcairiel
Registered Developer
 
Join Date: Mar 2010
Location: Hamburg/Germany
Posts: 9,788
Quote:
Originally Posted by Sunset1982 View Post
nev, you have an idea what causes the rx480's HEVC decoder to get greenscreen? Is it LAV incompatibility or a madvr problem?
If history with AMD tells us anything, its their drivers. But I do not plan to buy such a card.
__________________
LAV Filters - open source ffmpeg based media splitter and decoders
nevcairiel is offline   Reply With Quote
Old 29th August 2016, 23:09   #20998  |  Link
Schwartz
Registered User
 
Join Date: Dec 2012
Posts: 44
Not sure if this would be useful for anyone else, but for my laptop I would love the option to set the resolution limit for LAV hardware decoding by hand instead of those three checkboxes, since it's an older chip. What it can handle falls squarely between SD and HD.
Schwartz is offline   Reply With Quote
Old 3rd September 2016, 14:59   #20999  |  Link
Gravitator
Registered User
 
Join Date: May 2014
Posts: 170
Привет.
CUDA when decoding AVC consumes 15% CPU : 12% GPU;
DXVA2 (copy-baсk) when decoding AVC uses 15% CPU : 52% GPU.
Of course, I will use CUDA! Only every time I have to switch manually to DXVA2 (copy-baсk) for HEVC.
Please make ability to automatically switch.
Gravitator is offline   Reply With Quote
Old 3rd September 2016, 15:07   #21000  |  Link
sneaker_ger
Registered User
 
Join Date: Dec 2002
Posts: 5,476
Quote:
Originally Posted by Gravitator View Post
CUDA when decoding AVC consumes 15% CPU : 12% GPU;
DXVA2 (copy-baсk) when decoding AVC uses 15% CPU : 52% GPU.
Did you compare GPU clocks using GPU-Z?
sneaker_ger is offline   Reply With Quote
Reply

Tags
decoders, directshow, filters, splitter

Thread Tools Search this Thread
Search this Thread:

Advanced Search
Display Modes

Posting Rules
You may not post new threads
You may not post replies
You may not post attachments
You may not edit your posts

BB code is On
Smilies are On
[IMG] code is On
HTML code is Off

Forum Jump


All times are GMT +1. The time now is 18:57.


Powered by vBulletin® Version 3.8.11
Copyright ©2000 - 2019, vBulletin Solutions Inc.