Welcome to Doom9's Forum, THE in-place to be for everyone interested in DVD conversion.

Before you start posting please read the forum rules. By posting to this forum you agree to abide by the rules.

 

Go Back   Doom9's Forum > Video Encoding > MPEG-4 Encoder GUIs

Reply
 
Thread Tools Search this Thread Display Modes
Old 11th April 2012, 16:37   #10981  |  Link
Atak_Snajpera
RipBot264 author
 
Atak_Snajpera's Avatar
 
Join Date: May 2006
Location: Poland
Posts: 6,079
can you upload sample ? i would like to see what is wrong?
Atak_Snajpera is offline   Reply With Quote
Old 12th April 2012, 03:24   #10982  |  Link
sreemv
Registered User
 
Join Date: Feb 2003
Posts: 81
Awesome tool! Distributed makes me salivate! BUT, not having success - have the same issue as Jimmy - the server keeps toggling between "ENCODING" and "IDLE" to no avail! Please let me know if you have the fix. AGAIN, awesome tool! and, distributed makes this a must have for me
sreemv is offline   Reply With Quote
Old 12th April 2012, 06:16   #10983  |  Link
sreemv
Registered User
 
Join Date: Feb 2003
Posts: 81
I got the distributed to work after I matched the usernames and passwords - but is there a way to enable/utilize more cores on the remote nodes?

And, how do I enable this distributed encoding with "avs" input? Right now its working with "m2ts" input but I usually make my own custom avs after the demux and input the avs into ripbot.

Last edited by sreemv; 12th April 2012 at 06:20.
sreemv is offline   Reply With Quote
Old 12th April 2012, 10:03   #10984  |  Link
Atak_Snajpera
RipBot264 author
 
Atak_Snajpera's Avatar
 
Join Date: May 2006
Location: Poland
Posts: 6,079
de mode needs phisical video file. btw . also wait for 1.17.1 because unpatched 1.17.0 has few ugly bugs in that mode. few pages back you will see what was wrong.

regarding low cpu utilization on servers. make sure that your network is fast enough.definetelly wi-fi 54mbps is not enough. at least n 300mbps is required. btw real max speed for my tp-link 1043nd router is only about 120mbps.

Last edited by Atak_Snajpera; 12th April 2012 at 10:12.
Atak_Snajpera is offline   Reply With Quote
Old 13th April 2012, 05:14   #10985  |  Link
rc71
Registered User
 
Join Date: Aug 2011
Posts: 121
Quote:
Originally Posted by Atak_Snajpera View Post
can you upload sample ? i would like to see what is wrong?
I'm Assuming that's for me.

Here's the flv file. 45mb

http://jumbofiles.com/6v6kyh37qdhq

Thanks.
rc71 is offline   Reply With Quote
Old 13th April 2012, 09:16   #10986  |  Link
Gabes
Registered User
 
Join Date: Mar 2012
Location: Warsaw
Posts: 19
1)Demux issue.

I get this:

Settings\user\Desktop\RipBot264v1.16.5\Tools\eac3to\eac3to.exe" "C:\Documents and Settings\user\Desktop\00058.m2ts" 1: "C:\Temp\RipBot264temp\job1\video.mkv" -seekToIFrames 2: "C:\Temp\RipBot264temp\job1\audio_Undetermined.w64" -down16 -progressnumbers -log="C:\Temp\RipBot264temp\job1\demuxlog.txt"
------------------------------------------------------------------------------
M2TS, 1 video track, 1 audio track, 0:06:36, 24p /1.001
1: h264/AVC, 1080p24 /1.001 (16:9)
2: RAW/PCM, 2.0 channels, 16 bits, 48kHz
[v01] Extracting video track number 1...
[a02] Extracting audio track number 2...
[a02] Reading RAW/PCM...
[a02] Swapping endian...
[a02] Writing W64...
[v01] Muxing video to Matroska...
[a02] Creating file "C:\Temp\RipBot264temp\job1\audio_Undetermined.w64"...
[a02] The original audio track has a constant bit depth of 16 bits.
Added fps value (24 /1.001) to MKV header.
Video track 1 contains 9485 frames.
eac3to processing took 1 minute, 31 seconds.
Done.

If I check the Temp dir all video and audio files are there correctly. Only the ripbot menu looks 'disabled' => http://i.imgur.com/q6I88.png . Then after I selected the mkv demuxed file and all job1 is deleted...

I installed WMP correctly, as I seen here, but still doesn't work. I tried few portable or installed versions of different ripbot but still have same problem. I did not change anything.

2)Question about quality. What's better for encoding: bigger M.E. algorithm or increasing B-frame and R-frame value? (ESA/TESA takes so long)
Gabes is offline   Reply With Quote
Old 13th April 2012, 13:46   #10987  |  Link
Atak_Snajpera
RipBot264 author
 
Atak_Snajpera's Avatar
 
Join Date: May 2006
Location: Poland
Posts: 6,079
@rc71
remove this utf/unicode character from file name
The Walking Dead - Inside Episode 207 The Walking Dead Pretty Much Dead Already AMC.flv
Atak_Snajpera is offline   Reply With Quote
Old 13th April 2012, 19:24   #10988  |  Link
sreemv
Registered User
 
Join Date: Feb 2003
Posts: 81
Now that I am hooked onto this awesome distributed encoding - I am loving it and would like to suggest new features - just a wishlist

1] Increase the number of servers - perhaps allow a mixture of 32bit and 64bit?
2] Ability to distribute the load/frames - that is, I would like to say use server1 for 10%, server2 40%, server3 30%, server4 20%
3] Pause/Stop the encoding from one server and migrate/resume that on another server
sreemv is offline   Reply With Quote
Old 13th April 2012, 20:28   #10989  |  Link
Atak_Snajpera
RipBot264 author
 
Atak_Snajpera's Avatar
 
Join Date: May 2006
Location: Poland
Posts: 6,079
1. maybe later. new version is already seriously delayed.
2. this may reduce overall encoding speed. it is very likely that fast servers would stay idle while slower were still encoding.
3. why would you need that?
btw. what pcs and how many do you have?

Last edited by Atak_Snajpera; 13th April 2012 at 20:39.
Atak_Snajpera is offline   Reply With Quote
Old 14th April 2012, 11:58   #10990  |  Link
Lighto
The Black Reaper
 
Lighto's Avatar
 
Join Date: Nov 2009
Posts: 320
Hi Atak, I would like to suggest a switch in the "RipBot264.ini" file which can toggle off RipBot264 from doing a few things upon executed.

This list would include:
1. Configuring settings of DirectShow decoding filters
2. Configuring of Autoload VSFilter in Haali Media Splitter properties

This will allow users who would like to use CoreAVC or Autoload VSFilter to load subtitles for batch operation have a easier time.

It will be nice if there is another switch which can make RipBot264 add the "convertfps=true" line automatically to handle batch encoding of VRF sources.

Please let me know your view on this.

Thank you!

Last edited by Lighto; 14th April 2012 at 12:04.
Lighto is offline   Reply With Quote
Old 14th April 2012, 12:11   #10991  |  Link
Atak_Snajpera
RipBot264 author
 
Atak_Snajpera's Avatar
 
Join Date: May 2006
Location: Poland
Posts: 6,079
Quote:
This will allow users who would like to use CoreAVC or Autoload VSFilter to load subtitles for batch operation have a easier time.
I understand why you need Autoload VSFilter in batch mode but CoreAVC as decoder? What is wrong with libavcodec in ffdshow?

Quote:
It will be nice if there is another switch which can make RipBot264 add the "convertfps=true" line automatically to handle batch encoding of VRF sources.
ok.
Atak_Snajpera is offline   Reply With Quote
Old 14th April 2012, 12:23   #10992  |  Link
Lighto
The Black Reaper
 
Lighto's Avatar
 
Join Date: Nov 2009
Posts: 320
Quote:
Originally Posted by Atak_Snajpera View Post
I understand why you need Autoload VSFilter in batch mode but CoreAVC as decoder? What is wrong with libavcodec in ffdshow?
There is nothing wrong with ffdshow, I just thought that it might be good for folks who want to try out CoreAVC/LAV.
Lighto is offline   Reply With Quote
Old 14th April 2012, 17:25   #10993  |  Link
rc71
Registered User
 
Join Date: Aug 2011
Posts: 121
Quote:
Originally Posted by Atak_Snajpera View Post
@rc71
remove this utf/unicode character from file name
The Walking Dead - Inside Episode 207 The Walking Dead Pretty Much Dead Already AMC.flv
LOL! I didn't notices it wasN'T a hyphen. Worked fine. Thanks.

!!!!!!!Actually it didn't work fine. It created a 1k audio file that of course won't work!!!!.

Last edited by rc71; 14th April 2012 at 19:01.
rc71 is offline   Reply With Quote
Old 14th April 2012, 20:17   #10994  |  Link
Atak_Snajpera
RipBot264 author
 
Atak_Snajpera's Avatar
 
Join Date: May 2006
Location: Poland
Posts: 6,079
strange . works on my pc.

Code:
Complete name                            : C:\temp\RipBot264temp\audio.aac
Format                                   : ADTS
Format/Info                              : Audio Data Transport Stream
File size                                : 6.56 MiB
Overall bit rate mode                    : Variable

Audio
Format                                   : AAC
Format/Info                              : Advanced Audio Codec
Format version                           : Version 4
Format profile                           : LC
Bit rate mode                            : Variable
Minimum bit rate                         : 116 Kbps
Maximum bit rate                         : 192 Kbps
Channel(s)                               : 2 channels
Channel positions                        : Front: L R
Sampling rate                            : 48.0 KHz
Compression mode                         : Lossy
Stream size                              : 6.56 MiB (100%)
and final mp4 file
Code:
General
Complete name                            : C:\Users\Dawid\Desktop\The Walking Dead - Inside Episode 207 The Walking Dead Pretty Much Dead Already AMC.mp4
Format                                   : MPEG-4
Format profile                           : Base Media
Codec ID                                 : isom
File size                                : 40.6 MiB
Duration                                 : 7mn 0s
Overall bit rate mode                    : Variable
Overall bit rate                         : 809 Kbps
Encoded date                             : UTC 2012-04-14 19:20:52
Tagged date                              : UTC 2012-04-14 19:20:52

Video
ID                                       : 1
Format                                   : AVC
Format/Info                              : Advanced Video Codec
Format profile                           : High@L4.0
Format settings, CABAC                   : Yes
Format settings, ReFrames                : 3 frames
Codec ID                                 : avc1
Codec ID/Info                            : Advanced Video Coding
Duration                                 : 7mn 0s
Bit rate mode                            : Variable
Bit rate                                 : 677 Kbps
Maximum bit rate                         : 25.0 Mbps
Width                                    : 640 pixels
Height                                   : 368 pixels
Display aspect ratio                     : 1.739
Frame rate mode                          : Constant
Frame rate                               : 29.970 fps
Color space                              : YUV
Chroma subsampling                       : 4:2:0
Bit depth                                : 8 bits
Scan type                                : Progressive
Bits/(Pixel*Frame)                       : 0.096
Stream size                              : 34.0 MiB (84%)
Title                                    : The Walking Dead - Inside Episode 207 The Walking Dead Pretty Much Dead Already AMC
Writing library                          : x264 core 122 r2184 5c85e0a
Encoding settings                        : cabac=1 / ref=3 / deblock=1:0:0 / analyse=0x3:0x113 / me=hex / subme=7 / psy=1 / psy_rd=1.00:0.00 / mixed_ref=1 / me_range=16 / chroma_me=1 / trellis=1 / 8x8dct=1 / cqm=0 / deadzone=21,11 / fast_pskip=1 / chroma_qp_offset=-2 / threads=6 / sliced_threads=0 / nr=0 / decimate=1 / interlaced=0 / bluray_compat=0 / constrained_intra=0 / bframes=3 / b_pyramid=0 / b_adapt=1 / b_bias=0 / direct=1 / weightb=1 / open_gop=0 / weightp=2 / keyint=300 / keyint_min=30 / scenecut=40 / intra_refresh=0 / rc_lookahead=40 / rc=crf / mbtree=1 / crf=20.0 / qcomp=0.60 / qpmin=0 / qpmax=69 / qpstep=4 / vbv_maxrate=25000 / vbv_bufsize=25000 / crf_max=0.0 / nal_hrd=vbr / ip_ratio=1.40 / aq=1:1.00
Encoded date                             : UTC 2012-04-14 19:20:52
Tagged date                              : UTC 2012-04-14 19:20:55

Audio
ID                                       : 2
Format                                   : AAC
Format/Info                              : Advanced Audio Codec
Format profile                           : LC
Codec ID                                 : 40
Duration                                 : 7mn 0s
Bit rate mode                            : Variable
Bit rate                                 : 128 Kbps
Maximum bit rate                         : 134 Kbps
Channel(s)                               : 2 channels
Channel positions                        : Front: L R
Sampling rate                            : 48.0 KHz
Compression mode                         : Lossy
Stream size                              : 6.42 MiB (16%)
Encoded date                             : UTC 2012-04-14 19:20:55
Tagged date                              : UTC 2012-04-14 19:20:55
post your log please

Last edited by Atak_Snajpera; 14th April 2012 at 20:22.
Atak_Snajpera is offline   Reply With Quote
Old 15th April 2012, 07:16   #10995  |  Link
Shrekage
Registered User
 
Join Date: Feb 2012
Posts: 40
Encoding server won't show UI if launched whtin a remote desktop sesion.

I would also like to see the encoding server limit removed or increased to at least 16...

Last edited by Shrekage; 15th April 2012 at 09:06.
Shrekage is offline   Reply With Quote
Old 16th April 2012, 04:39   #10996  |  Link
rc71
Registered User
 
Join Date: Aug 2011
Posts: 121
@Atak. I don't know what is the difference, but this isn't the first time I've, only me, had sound issues. I've tried it on two XP machines and a Win7 machine with no difference and yet others in the forum have no problem with the same file. I thought it must be something I'm installing on all the machine, but the win7 isn't my install so I'm lost. Anyway, like before, NeroAAC from MeGUI was able to encode the audio.

As for log, I have a job config file. I'm not sure what you want for a log file. But check out the LENGTH of the SOURCE audio.


[JobSettings]
VideoFile=E:\The Walking Dead - Inside Episode 212 The Walking Dead Better Angels.flv
VideoCodec=h264
VideoWidth=640
VideoHeight=368
VideoAspectRatio=16:9
VideoProfile=[HIGH 4.0] HD . Progressive
SourceFPS=25
MovieFPS=25
FPSinGUI=25
SourceNumberOfFrames=10397
SourceMovieLength=415.88
CurrentMovieLength=415.88
SourceAudioLength=0.557278911564626
Frames=10397
Duration=0:6:55.88
Mode=CQ
kbps=22
AudioFile=C:\Temp\RipBot264temp\job1\audio.aac
AudioFileSize=768
AudioCodec=aac
AudioBPS=
AudioProfile=x.x C O P Y S T R E A M
Frequency=44100
Channels=2
DurationAudio=0:0:0.557
AudioLength=0.557278911564626
Normalize=OFF
AudioDelay=0
AudioLang=Undetermined [und]
Output=F:\The Walking Dead - Inside Episode 212 The Walking Dead Better Angels.mkv
Container=mkv
LockSize=0
Size=
Deinterlace=Do not deinterlace
Crop=Do not crop
CropTop=0
CropBottom=0
CropLeft=0
CropRight=0
Resize=Do not resize
ResX=640
ResY=368
Decimate=Do not decimate
Colors=Do not change colors
hue=0
sat=1
bright=0
cont=1
subtitles=Do not use subtitles
subtitleFileSize=0
path=
Denoise=Do not denoise
AssumeFPS=Do not change
Forced_Subtitles=NONE
rc71 is offline   Reply With Quote
Old 16th April 2012, 06:32   #10997  |  Link
essential
Registered User
 
Join Date: Oct 2005
Posts: 30
Did a search and didn't find anything. I've been using Ripbot to convert my blu-rays to 720p mkv's for a while with no issues, the program has been great, and it has by far the best UI for me.

Lately I've tried backing up my DVDs to mp4, and I've had issues. The setup and conversion is fine, and the resulting file looks great, however i'm having trouble when playing on my Boxee Box. When I play the file everything is fine and looks great, but if I try to fast forward, it'll take upwards of a minute after I stop for the video to come together, it'll be in super slow motion with no audio till everything catches up. My 720p MKV's fast forward just fine and they start instantaneously when I hit play after a fast forward. I've tried two different movies, one using the HD profile and one using the SD profile (with the latest version of Ripbot), but had the same issue with both resulting files, I do a 2-pass 1400meg locked size file with 5.1 192 sound. The tracking on the computer with VLC works fine and is normal, but since my MKV's work fine I on Boxee I assume I'm doing something wrong.

Is there a trick to SD material? Has anyone else had this issue and solved it? I'm very happy with the PQ, but the fast forward issue makes me think something is inherently wrong with the file/conversion and I'd like to figure it out prior to converting a large batch of my DVDs. Thanks.
essential is offline   Reply With Quote
Old 16th April 2012, 15:06   #10998  |  Link
Atak_Snajpera
RipBot264 author
 
Atak_Snajpera's Avatar
 
Join Date: May 2006
Location: Poland
Posts: 6,079
@Shrekage
What happens in TeamViewer? Regarding server count. Max would be 8. To much copy-paste work

@rc71
update ffmpeg.exe

@essential
post mediainfo report for working HD and not working properly SD
Have you contacted with Boxee Box's tech support?

Last edited by Atak_Snajpera; 16th April 2012 at 15:09.
Atak_Snajpera is offline   Reply With Quote
Old 16th April 2012, 23:04   #10999  |  Link
essential
Registered User
 
Join Date: Oct 2005
Posts: 30
Quote:
Originally Posted by Atak_Snajpera View Post
@essential
post mediainfo report for working HD and not working properly SD
Have you contacted with Boxee Box's tech support?
Coincidentally, as I was posting this yesterday I was converting one of the DVDs I tried as an MKV instead of an MP4, all other settings the same, and I don't have the fast forwarding issue with that file. So it's something with the mp4 process/file, either on Boxee's end or Ripbots, because the Boxee doesn't have issues with other mp4's that I have.

MP4
Quote:
General
Complete name : C:\bd\ironclad\ironclad.mp4
Format : MPEG-4
Format_Commercial_IfAny : XDCAM EX 25
Format profile : Base Media
Codec ID : isom
File size : 1.36 GiB
Duration : 2h 1mn
Overall bit rate mode : Variable
Overall bit rate : 1 610 Kbps
Encoded date : UTC 2012-04-15 21:04:47
Tagged date : UTC 2012-04-15 21:04:47

Video
ID : 1
Format : AVC
Format/Info : Advanced Video Codec
Format_Commercial_IfAny : XDCAM EX 25
Format profile : High@L4.0
Format settings, CABAC : Yes
Format settings, ReFrames : 3 frames
Codec ID : avc1
Codec ID/Info : Advanced Video Coding
Duration : 2h 1mn
Bit rate mode : Variable
Bit rate : 1 416 Kbps
Maximum bit rate : 25.0 Mbps
Width : 640 pixels
Height : 266 pixels
Display aspect ratio : 2.40:1
Frame rate mode : Constant
Frame rate : 23.976 fps
Color space : YUV
Chroma subsampling : 4:2:0
Bit depth : 8 bits
Scan type : Progressive
Bits/(Pixel*Frame) : 0.347
Stream size : 1.20 GiB (88%)
Title : ironclad
Writing library : x264 core 120 r2120 0c7dab9
Encoding settings : cabac=1 / ref=3 / deblock=1:0:0 / analyse=0x3:0x113 / me=hex / subme=7 / psy=1 / psy_rd=1.00:0.00 / mixed_ref=1 / me_range=16 / chroma_me=1 / trellis=1 / 8x8dct=1 / cqm=0 / deadzone=21,11 / fast_pskip=1 / chroma_qp_offset=-2 / threads=3 / sliced_threads=0 / nr=0 / decimate=1 / interlaced=0 / bluray_compat=0 / constrained_intra=0 / bframes=3 / b_pyramid=0 / b_adapt=1 / b_bias=0 / direct=1 / weightb=1 / open_gop=0 / weightp=2 / keyint=240 / keyint_min=24 / scenecut=40 / intra_refresh=0 / rc_lookahead=40 / rc=2pass / mbtree=1 / bitrate=1416 / ratetol=1.0 / qcomp=0.60 / qpmin=0 / qpmax=69 / qpstep=4 / cplxblur=20.0 / qblur=0.5 / vbv_maxrate=25000 / vbv_bufsize=25000 / nal_hrd=vbr / ip_ratio=1.40 / aq=1:1.00
Encoded date : UTC 2012-04-15 21:04:47
Tagged date : UTC 2012-04-15 21:06:36

Audio
ID : 2
Format : AAC
Format/Info : Advanced Audio Codec
Format profile : HE-AAC / LC
Codec ID : 40
Duration : 2h 1mn
Bit rate mode : Variable
Bit rate : 192 Kbps
Maximum bit rate : 211 Kbps
Channel(s) : 6 channels
Channel positions : Front: L C R, Side: L R, LFE
Sampling rate : 48.0 KHz / 24.0 KHz
Compression mode : Lossy
Stream size : 166 MiB (12%)
Language : English
Encoded date : UTC 2012-04-15 21:06:25
Tagged date : UTC 2012-04-15 21:06:36

Menu
00:00:00.000 : Chapter 1
00:14:19.133 : Chapter 2
00:23:51.800 : Chapter 3
00:34:16.400 : Chapter 4
00:43:15.300 : Chapter 5
00:52:28.633 : Chapter 6
01:02:20.367 : Chapter 7
01:13:56.534 : Chapter 8
01:25:46.867 : Chapter 9
01:36:01.334 : Chapter 10
01:45:54.400 : Chapter 11
01:54:17.833 : Chapter 12
MP4
Quote:
General
Complete name : C:\bd\THE_BEAVER\the beaver.mp4
Format : MPEG-4
Format profile : Base Media
Codec ID : isom
File size : 1.36 GiB
Duration : 1h 30mn
Overall bit rate mode : Variable
Overall bit rate : 2 146 Kbps
Encoded date : UTC 2012-04-16 02:36:29
Tagged date : UTC 2012-04-16 02:36:29

Video
ID : 1
Format : AVC
Format/Info : Advanced Video Codec
Format profile : Main@L3.0
Format settings, CABAC : Yes
Format settings, ReFrames : 3 frames
Codec ID : avc1
Codec ID/Info : Advanced Video Coding
Duration : 1h 30mn
Bit rate mode : Variable
Bit rate : 1 952 Kbps
Maximum bit rate : 10 000 Kbps
Width : 640 pixels
Height : 266 pixels
Display aspect ratio : 2.40:1
Frame rate mode : Constant
Frame rate : 23.976 fps
Color space : YUV
Chroma subsampling : 4:2:0
Bit depth : 8 bits
Scan type : Progressive
Bits/(Pixel*Frame) : 0.478
Stream size : 1.24 GiB (91%)
Title : the beaver
Writing library : x264 core 120 r2120 0c7dab9
Encoding settings : cabac=1 / ref=3 / deblock=1:0:0 / analyse=0x1:0x111 / me=hex / subme=7 / psy=1 / psy_rd=1.00:0.00 / mixed_ref=1 / me_range=16 / chroma_me=1 / trellis=1 / 8x8dct=0 / cqm=0 / deadzone=21,11 / fast_pskip=1 / chroma_qp_offset=-2 / threads=3 / sliced_threads=0 / nr=0 / decimate=1 / interlaced=0 / bluray_compat=0 / constrained_intra=0 / bframes=3 / b_pyramid=0 / b_adapt=1 / b_bias=0 / direct=1 / weightb=1 / open_gop=0 / weightp=2 / keyint=240 / keyint_min=24 / scenecut=40 / intra_refresh=0 / rc_lookahead=40 / rc=2pass / mbtree=1 / bitrate=1952 / ratetol=1.0 / qcomp=0.60 / qpmin=0 / qpmax=69 / qpstep=4 / cplxblur=20.0 / qblur=0.5 / vbv_maxrate=10000 / vbv_bufsize=10000 / nal_hrd=vbr / ip_ratio=1.40 / aq=1:1.00
Encoded date : UTC 2012-04-16 02:36:29
Tagged date : UTC 2012-04-16 02:38:08

Audio
ID : 2
Format : AAC
Format/Info : Advanced Audio Codec
Format profile : HE-AAC / LC
Codec ID : 40
Duration : 1h 30mn
Bit rate mode : Variable
Bit rate : 192 Kbps
Maximum bit rate : 206 Kbps
Channel(s) : 6 channels
Channel positions : Front: L C R, Side: L R, LFE
Sampling rate : 48.0 KHz / 24.0 KHz
Compression mode : Lossy
Stream size : 125 MiB (9%)
Language : English
Encoded date : UTC 2012-04-16 02:38:01
Tagged date : UTC 2012-04-16 02:38:08

Menu
00:00:00.000 : Chapter 1
00:06:52.700 : Chapter 2
00:11:36.933 : Chapter 3
00:14:40.533 : Chapter 4
00:19:55.533 : Chapter 5
00:24:17.367 : Chapter 6
00:30:54.867 : Chapter 7
00:33:26.367 : Chapter 8
00:40:01.034 : Chapter 9
00:48:16.534 : Chapter 10
00:51:08.201 : Chapter 11
00:55:29.168 : Chapter 12
01:00:48.168 : Chapter 13
01:05:25.334 : Chapter 14
01:08:59.434 : Chapter 15
01:12:06.867 : Chapter 16
01:16:47.167 : Chapter 17
01:21:59.534 : Chapter 18
MKV
Quote:
General
Unique ID : 226002551083173183169057163372396832523 (0xAA06821079C61F34989A308D3444670B)
Complete name : C:\bd\THE_BEAVER\the beaver.mkv
Format : Matroska
Format version : Version 2
File size : 1.37 GiB
Duration : 1h 30mn
Overall bit rate mode : Variable
Overall bit rate : 2 150 Kbps
Movie name : the beaver
Encoded date : UTC 2012-04-16 07:11:07
Writing application : mkvmerge v5.2.0 ('I can't explain') built on Dec 29 2011 19:29:57
Writing library : libebml v1.2.3 + libmatroska v1.3.0

Video
ID : 1
Format : AVC
Format/Info : Advanced Video Codec
Format profile : High@L4.0
Format settings, CABAC : Yes
Format settings, ReFrames : 3 frames
Codec ID : V_MPEG4/ISO/AVC
Duration : 1h 30mn
Bit rate mode : Variable
Nominal bit rate : 1 957 Kbps
Maximum bit rate : 25.0 Mbps
Width : 640 pixels
Height : 266 pixels
Display aspect ratio : 2.40:1
Frame rate : 23.976 fps
Color space : YUV
Chroma subsampling : 4:2:0
Bit depth : 8 bits
Scan type : Progressive
Bits/(Pixel*Frame) : 0.479
Writing library : x264 core 120 r2120 0c7dab9
Encoding settings : cabac=1 / ref=3 / deblock=1:0:0 / analyse=0x3:0x113 / me=hex / subme=7 / psy=1 / psy_rd=1.00:0.00 / mixed_ref=1 / me_range=16 / chroma_me=1 / trellis=1 / 8x8dct=1 / cqm=0 / deadzone=21,11 / fast_pskip=1 / chroma_qp_offset=-2 / threads=3 / sliced_threads=0 / nr=0 / decimate=1 / interlaced=0 / bluray_compat=0 / constrained_intra=0 / bframes=3 / b_pyramid=0 / b_adapt=1 / b_bias=0 / direct=1 / weightb=1 / open_gop=0 / weightp=2 / keyint=240 / keyint_min=24 / scenecut=40 / intra_refresh=0 / rc_lookahead=40 / rc=2pass / mbtree=1 / bitrate=1957 / ratetol=1.0 / qcomp=0.60 / qpmin=0 / qpmax=69 / qpstep=4 / cplxblur=20.0 / qblur=0.5 / vbv_maxrate=25000 / vbv_bufsize=25000 / nal_hrd=vbr / ip_ratio=1.40 / aq=1:1.00
Default : Yes
Forced : No

Audio
ID : 2
Format : AAC
Format/Info : Advanced Audio Codec
Format profile : HE-AAC / LC
Codec ID : A_AAC
Duration : 1h 30mn
Channel(s) : 6 channels
Channel positions : Front: L C R, Side: L R, LFE
Sampling rate : 48.0 KHz / 24.0 KHz
Compression mode : Lossy
Language : English
Default : Yes
Forced : No

Menu
00:00:00.000 : en:Chapter 1
00:06:52.700 : en:Chapter 2
00:11:36.933 : en:Chapter 3
00:14:40.533 : en:Chapter 4
00:19:55.533 : en:Chapter 5
00:24:17.367 : en:Chapter 6
00:30:54.867 : en:Chapter 7
00:33:26.367 : en:Chapter 8
00:40:01.034 : en:Chapter 9
00:48:16.534 : en:Chapter 10
00:51:08.201 : en:Chapter 11
00:55:29.168 : en:Chapter 12
01:00:48.168 : en:Chapter 13
01:05:25.334 : en:Chapter 14
01:08:59.434 : en:Chapter 15
01:12:06.867 : en:Chapter 16
01:16:47.167 : en:Chapter 17
01:21:59.534 : en:Chapter 18

Last edited by essential; 16th April 2012 at 23:15.
essential is offline   Reply With Quote
Old 17th April 2012, 17:16   #11000  |  Link
Atak_Snajpera
RipBot264 author
 
Atak_Snajpera's Avatar
 
Join Date: May 2006
Location: Poland
Posts: 6,079
before starting encoding edit job1_MuxFiles.cmd

add this to command line

Code:
..\mp4box.exe" -inter 0 -tmp "C:\Temp\RipBot264temp" ...
Atak_Snajpera is offline   Reply With Quote
Reply

Tags
264, 265, appletv, avchd, bluray, gui, iphone, ipod, ps3, psp, ripbot264, x264 2-pass, x264 gui, x264_64, x265, xbox360

Thread Tools Search this Thread
Search this Thread:

Advanced Search
Display Modes

Posting Rules
You may not post new threads
You may not post replies
You may not post attachments
You may not edit your posts

BB code is On
Smilies are On
[IMG] code is On
HTML code is Off

Forum Jump


All times are GMT +1. The time now is 18:57.


Powered by vBulletin® Version 3.8.9
Copyright ©2000 - 2017, vBulletin Solutions, Inc.