Welcome to Doom9's Forum, THE in-place to be for everyone interested in DVD conversion.

Before you start posting please read the forum rules. By posting to this forum you agree to abide by the rules.

 

Go Back   Doom9's Forum > (HD) DVD, Blu-ray & (S)VCD > One click suites for DVD backup and DVD creation

Reply
 
Thread Tools Search this Thread Display Modes
Old 16th June 2011, 13:36   #1801  |  Link
laserfan
Aging Video Hobbyist
 
Join Date: Dec 2004
Location: Off the Map
Posts: 2,443
Quote:
Originally Posted by MrC View Post
Good suggestion for improving chapters retaining feat.

Thanks for confirming the "retaining chapters from Sources" does not work for all sources! Apparently not many folks [tried to] use this feature or I'd have found more postings about it.

Dunno if you want to add "chapters from BD" to your list of enhancements but AFAIK that will require eac3to and ChapterGen as MediaInfo doesn't seem to do it.

Anyway now I know to separately use "Import Chapters" for each title.
laserfan is offline   Reply With Quote
Old 17th June 2011, 23:07   #1802  |  Link
8ternity
Registered User
 
8ternity's Avatar
 
Join Date: May 2008
Location: At Home
Posts: 403
Hi Mrc,

here samething with another project.

2.4.0 original release:

the error:
http://i480.photobucket.com/albums/r...1718h04_46.png

After click "ok";
click to "Edit Movie Info" to set the title and delay if delay present; another error.
http://i480.photobucket.com/albums/r...1718h09_04.png

mediainfo log:
Code:
General 
ID : 1 (0x1) 
Complete name : E:\BLURAY\Diary Of A Wimpy Kid Rodrick Rules FRENCH AC3 1080P F.AVCHD\AVCHD\BDMV\STREAM\00000.m2ts 
Format : BDAV 
Format/Info : Blu-ray Video 
File size : 4.36 GiB 
Duration : 1h 39mn 
Overall bit rate : 6 275 Kbps 
Maximum Overall bit rate : 35.5 Mbps 

Video 
ID : 4113 (0x1011) 
Menu ID : 1 (0x1) 
Format : AVC 
Format/Info : Advanced Video Codec 
Format profile : High@L4.0 
Format settings, CABAC : Yes 
Format settings, ReFrames : 3 frames 
Format settings, GOP : M=4, N=60 
Codec ID : 27 
Duration : 1h 39mn 
Bit rate mode : Variable 
Bit rate : 5 505 Kbps 
Maximum bit rate : 25.0 Mbps 
Width : 1 920 pixels 
Height : 1 080 pixels 
Display aspect ratio : 16:9 
Frame rate : 23.976 fps 
Color space : YUV 
Chroma subsampling : 4:2:0 
Bit depth : 8 bits 
Scan type : Progressive 
Bits/(Pixel*Frame) : 0.111 
Stream size : 3.87 GiB (89%) 
Writing library : x264 core 112 r1867 22bfd31 
Encoding settings : cabac=1 / ref=3 / deblock=1:0:0 / analyse=0x3:0x133 / me=umh / subme=7 / psy=1 / psy_rd=1.00:0.00 / mixed_ref=1 / me_range=16 / chroma_me=1 / trellis=1 / 8x8dct=1 / cqm=0 / deadzone=21,11 / fast_pskip=1 / chroma_qp_offset=-2 / threads=6 / sliced_threads=0 / nr=0 / decimate=1 / interlaced=0 / constrained_intra=0 / bframes=3 / b_pyramid=0 / b_adapt=1 / b_bias=0 / direct=1 / weightb=1 / open_gop=0 / weightp=2 / keyint=240 / keyint_min=24 / scenecut=40 / intra_refresh=0 / rc_lookahead=40 / rc=2pass / mbtree=1 / bitrate=5505 / ratetol=1.0 / qcomp=0.60 / qpmin=0 / qpmax=51 / qpstep=4 / cplxblur=20.0 / qblur=0.5 / vbv_maxrate=25000 / vbv_bufsize=25000 / nal_hrd=vbr / ip_ratio=1.40 / aq=1:1.00 

Audio 
ID : 4352 (0x1100) 
Menu ID : 1 (0x1) 
Format : AC-3 
Format/Info : Audio Coding 3 
Mode extension : CM (complete main) 
Codec ID : 129 
Duration : 1h 39mn 
Bit rate mode : Constant 
Bit rate : 448 Kbps 
Channel(s) : 6 channels 
Channel positions : Front: L C R, Side: L R, LFE 
Sampling rate : 48.0 KHz 
Bit depth : 16 bits 
Compression mode : Lossy 
Stream size : 319 MiB (7%) 
Language : French 

Text 
ID : 4608 (0x1200) 
Menu ID : 1 (0x1) 
Format : PGS 
Codec ID : 144 
Language : French
__________________
PC; 7.5 on 7.9 (Windows Experience Rating) on the lower rating.

Last edited by 8ternity; 17th June 2011 at 23:10.
8ternity is offline   Reply With Quote
Old 19th June 2011, 14:35   #1803  |  Link
MrC
AVStoDVD Dev
 
MrC's Avatar
 
Join Date: Apr 2006
Location: Italy
Posts: 1,246
What happen if you try to remux the m2ts with tsRemux, leaving only the audio/subs tracks you need?

I've received another warning about division by zero, but the cause was a framerate detected as "0" by MediaInfo. That's should not be the same issue as yours.

Bye
__________________
MrC

AVStoDVD Homepage
AVStoDVD @ Doom9 Forum
MrC is offline   Reply With Quote
Old 20th June 2011, 03:23   #1804  |  Link
8ternity
Registered User
 
8ternity's Avatar
 
Join Date: May 2008
Location: At Home
Posts: 403
Hi Mrc,

That movie was encoded with Ripbot264 1.16.4 and re-expoted in AVCHD format with TsMuxerGUI. It not gonna change if i set to m2ts; AVCHD is the same format has the m2ts file?

I'Ve try another movie, samething. Version 2.3.4 is ok! Everything pass.

Let me know if i can help more than this.


**EDIT**

Tested re-muxed in m2ts with txmuser without subtitles; samething.
Also updated ffdshow clsidd rev3871 to 3881; samething.
__________________
PC; 7.5 on 7.9 (Windows Experience Rating) on the lower rating.

Last edited by 8ternity; 20th June 2011 at 03:30.
8ternity is offline   Reply With Quote
Old 20th June 2011, 16:30   #1805  |  Link
MrC
AVStoDVD Dev
 
MrC's Avatar
 
Join Date: Apr 2006
Location: Italy
Posts: 1,246
Quote:
Originally Posted by 8ternity View Post
I'Ve try another movie, samething. Version 2.3.4 is ok! Everything pass.
Ok, let me check. I will give you a 2.4.1 Alpha for testing.



Bye
__________________
MrC

AVStoDVD Homepage
AVStoDVD @ Doom9 Forum
MrC is offline   Reply With Quote
Old 22nd June 2011, 14:31   #1806  |  Link
8ternity
Registered User
 
8ternity's Avatar
 
Join Date: May 2008
Location: At Home
Posts: 403
LEt me know with a "PM" when your alpha is ready. I will test it.

THanks.
__________________
PC; 7.5 on 7.9 (Windows Experience Rating) on the lower rating.
8ternity is offline   Reply With Quote
Old 28th June 2011, 23:23   #1807  |  Link
8ternity
Registered User
 
8ternity's Avatar
 
Join Date: May 2008
Location: At Home
Posts: 403
The issue has neen resolved but i found that the image quality is not has the preview stable version 2.3.4!

The fast mouvement is a little bit saccaged sometimes. I seen some desinterlaced lines on caracters mouvements; saccaged a little bit in some action scene.

I use same settings then before. DirecShow; 2-pass; Sline36Resize; etc.
__________________
PC; 7.5 on 7.9 (Windows Experience Rating) on the lower rating.
8ternity is offline   Reply With Quote
Old 29th June 2011, 12:52   #1808  |  Link
MrC
AVStoDVD Dev
 
MrC's Avatar
 
Join Date: Apr 2006
Location: Italy
Posts: 1,246
Quote:
Originally Posted by 8ternity View Post
The issue has neen resolved but i found that the image quality is not has the preview stable version 2.3.4!

The fast mouvement is a little bit saccaged sometimes. I seen some desinterlaced lines on caracters mouvements; saccaged a little bit in some action scene.

I use same settings then before. DirecShow; 2-pass; Sline36Resize; etc.
Fine with the issue.

About the output quality: could you please send me the log files from 2.3.4 and 2.4.1 Alpha projects that show different quality?



Bye
__________________
MrC

AVStoDVD Homepage
AVStoDVD @ Doom9 Forum
MrC is offline   Reply With Quote
Old 29th June 2011, 13:25   #1809  |  Link
laserfan
Aging Video Hobbyist
 
Join Date: Dec 2004
Location: Off the Map
Posts: 2,443
Quote:
Originally Posted by 8ternity View Post
I use same settings then before. DirecShow; 2-pass; Sline36Resize; etc.
Sorry if this has been asked before... The couple times I've used this software it has worked brilliantly, though I was surprised that it defaults to 1-pass and still manages to hit the bitrate target effectively (necessary as my BD-to-DVD conversions were for discs with 6 TV episodes thereon). Can I assume 2-pass will be even better re-encoding to MPEG2, and more accurate still with fitting-episodes-to-DVD, and at what speed penalty? Twice as slow? Ten times?
laserfan is offline   Reply With Quote
Old 29th June 2011, 20:32   #1810  |  Link
8ternity
Registered User
 
8ternity's Avatar
 
Join Date: May 2008
Location: At Home
Posts: 403
I will post you the first log; i second will follow when i will finished all conversions.

AVStoDVD 2.4.1 Alpha;
Code:
<2011-06-28 10:12:03>
START PROCESS
<>

<2011-06-28 10:12:03>
PROJECT SETTINGS

DVD Video Standard: NTSC
DVD Titles number: 1
DVD Size: 4450/4450 MB (100%)
DVD Output Setup: DVD Folder
DVD Label: THE_REBOUND
DVD Menu: No Menu
Output Folder: E:\DVD-TEMP
Delete Temp Process Files: Yes
Delete Working Files: Yes
Edit Command Parameters: No
Post Process Task: Show Progress Status window

PREFERENCES

MultiThread: 1
AVS Source Filter: DirectShowSource
AVS UpSize/DownSize Filter: Spline36Resize/Spline36Resize
Video Resolution: 0
Video BitRate Min: 2500
Video BitRate Level 1: 8500
Video Profile Level 2: 8500
Video BitRate Max: 8500
Keep DVD Compliant Video: 1
AC3 Audio Encoder: 0
PAL SpeedUp: 0
Force FFmpeg for Long Audio: 1
DVD Audio Format: 0
DVD Audio BitRate: 448
Keep DVD Compliant Audio: 0
Normalize Audio: 0
Auto Delay Audio: 0
DVD Audio Language (Primary): FR - French
DVD Audio Language (Secondary): EN - English
DVD Subs Language (Primary): FR - French
DVD Subs Language (Secondary): EN - English
DVD Subs Font: Tahoma 18pt Bold (255,255,255)
Chapters Interval: 5
Use Source Chapters: 1
DVD Burning Drive: F: Optiarc DVD RW AD-7241S 1.03
DVD Burning Speed: 4x
Auto Erase DVD RW: 1
Save Log file: 1
Display errors messages: 1
Unload ActiveMovie library: 0
Adjust ffdshow mixer: 1
Save General Settings: 0
<>

<2011-06-28 10:12:03>
TITLE 1 SOURCE FILES
Video: E:\BLURAY\The Rebound FRENCH AC3 720P AFF DVD5.AVCHD\BDMV\STREAM\00000.m2ts
Info: AVC - 5765 kbps - 1280x720 - DAR 1,778 - 0 fps (CFR) - Progressive - 1:34:38 hours - 136150 frames
Audio 1: E:\BLURAY\The Rebound FRENCH AC3 720P AFF DVD5.AVCHD\BDMV\STREAM\00000.m2ts
Info: AC3 - 448 kbps - CBR - 6 ch - 48000 Hz - 16 bit - 1:34:38 hours (0 ms delay) - Internal
[]
<>

<2011-06-28 10:12:03>
AVISYNTH SCRIPT
Video = DirectShowSource("E:\BLURAY\The Rebound FRENCH AC3 720P AFF DVD5.AVCHD\BDMV\STREAM\00000.m2ts", audio=false)
Audio = DirectShowSource("E:\BLURAY\The Rebound FRENCH AC3 720P AFF DVD5.AVCHD\BDMV\STREAM\00000.m2ts", video=false)

Video = Video.ConvertToYV12
Video = Video.ConvertFPS("ntsc_video")
Video = Video.Spline36Resize(720,480)

AudioDub(Video, Audio)
<>

<2011-06-28 10:12:03>
START VIDEO ENCODING OPERATIONS
Encoding Profile: HCenc VBR 2-pass
Target Video FileSize: 4053,8 MB
HCenc Parameters: -ini "E:\Temp\THE_REBOUND_0_THE_REBOUND.HCenc.ini"
HCenc ini file:
*INFILE E:\Temp\THE_REBOUND_0_THE_REBOUND_1.avs
*AVSRELOAD
*OUTFILE C:\Users\ST3PH4NE\Videos\THE_REBOUND_0_THE_REBOUND.m2v
*LOGFILE E:\Temp\THE_REBOUND_0_THE_REBOUND.HCenc.log
*MAXBITRATE 9000
*BITRATE 5988
*PROFILE BEST
*ASPECT 16:9
*PROGRESSIVE
*TFF
*BIAS 60
*DC_PREC 9
*MATRIX MPEG
*AQ 1
*LUMGAIN 1
*SMP
*PRIORITY IDLE
*WAIT 2
<>

<2011-06-28 12:06:35>
END VIDEO ENCODING OPERATIONS
Created File: C:\Users\ST3PH4NE\Videos\THE_REBOUND_0_THE_REBOUND.m2v (4053,4 MB)
OUTPUT VIDEO INFO: MPEG-2 Video - 6037 kbps - 720x480 - DAR 1,778 - 0 fps (CFR) - Progressive (TFF) - 1:34:32 hours - 170017 frames
<>

<2011-06-28 12:06:35>
START AUDIO ENCODING OPERATIONS (Track 1)
Wavi+Aften Parameters: "E:\Temp\THE_REBOUND_0_THE_REBOUND_1.avs" - | "C:\Program Files (x86)\AVStoDVD\Aften\aften.exe" -b 448 -pad 0 -dynrng 5 -bwfilter 0 - "C:\Users\ST3PH4NE\Videos\THE_REBOUND_0_THE_REBOUND_1.ac3"
<>

<2011-06-28 12:08:43>
END AUDIO ENCODING OPERATIONS (Track 1)
Created File: C:\Users\ST3PH4NE\Videos\THE_REBOUND_0_THE_REBOUND_1.ac3 (303,3 MB)
OUTPUT AUDIO INFO: AC3 - 448 kbps - CBR - 6 ch - 48000 Hz - 16 bit - 1:34:38 hours (0 ms delay)
<>

<2011-06-28 12:08:43>
START DVD AUTHORING OPERATIONS
BatchMux Parameters: -arglist "E:\Temp\THE_REBOUND_0_BatchMux.ini"
BatchMux ini file:
-d "E:\DVD-TEMP\THE_REBOUND_0\VIDEO_TS"
-mxp "E:\Temp\THE_REBOUND_0_MuxMan.mxp"
-l "E:\Temp\THE_REBOUND_0_MuxMan.log"
-muxman "C:\Program Files (x86)\AVStoDVD\MuxMan"
-prio LOW
-palette "E:\Temp\THE_REBOUND_0_Palette.txt"
-v "C:\Users\ST3PH4NE\Videos\THE_REBOUND_0_THE_REBOUND.m2v"
-vidmode LB
-a1 "C:\Users\ST3PH4NE\Videos\THE_REBOUND_0_THE_REBOUND_1.ac3"
-a1lang fr
-cellfr "C:\Users\ST3PH4NE\Videos\THE_REBOUND_0_THE_REBOUND_Chapters.txt"
-progfr "C:\Users\ST3PH4NE\Videos\THE_REBOUND_0_THE_REBOUND_Chapters.txt"
-chapfr "C:\Users\ST3PH4NE\Videos\THE_REBOUND_0_THE_REBOUND_Chapters.txt"

<>

<2011-06-28 12:11:37>
CHECK DVD SIZE
DVD Folder (actual) Size: 4441,4 MB
vs Estimated Size: 4450 MB -> 0,2% undersize
vs Assets Size: 4356,7 MB -> OK
<>

<2011-06-28 12:11:37>
END DVD AUTHORING OPERATIONS
Created Folder: E:\DVD-TEMP\THE_REBOUND_0 (4441,4 MB)
<>

<2011-06-28 12:11:37>
Log file created by AVStoDVD Release 2.4.1 Alpha build 110624
<>
__________________
PC; 7.5 on 7.9 (Windows Experience Rating) on the lower rating.
8ternity is offline   Reply With Quote
Old 30th June 2011, 08:03   #1811  |  Link
ynamojn
Registered User
 
Join Date: Feb 2010
Posts: 5
5.1 DTS to 5.1 AC3 encoding problem

It seems that encoding 5.1 DTS to 5.1 AC3 using wavi+aften will give 2.0 AC3 audio. Is this not possible or am I making mistake in preference? I have choose AC3 with 448 kbps bit rate. I assume with 448 kbps you will get 5.1 AC3 if the input is 6 channels.
ynamojn is offline   Reply With Quote
Old 30th June 2011, 13:03   #1812  |  Link
MrC
AVStoDVD Dev
 
MrC's Avatar
 
Join Date: Apr 2006
Location: Italy
Posts: 1,246
@laserfan

yes, theoretically 2-pass VBR encoding will give you a better result than 1-pass VBR, mainly using low bitrates (i.e. <3000 kbps). Encoding time should increase about 70-80% than 1-pass VBR.

@8ternity

if you have some frames screenshots that show quality difference, that would be great. Otherwise, log files are enough

@ynamojn

take a look at Help/FAQ/Audio/Q4.1



Bye
__________________
MrC

AVStoDVD Homepage
AVStoDVD @ Doom9 Forum
MrC is offline   Reply With Quote
Old 30th June 2011, 13:19   #1813  |  Link
laserfan
Aging Video Hobbyist
 
Join Date: Dec 2004
Location: Off the Map
Posts: 2,443
Quote:
Originally Posted by MrC View Post
@laserfan

yes, theoretically 2-pass VBR encoding will give you a better result than 1-pass VBR, mainly using low bitrates (i.e. <3000 kbps). Encoding time should increase about 70-80% than 1-pass VBR.
Many thanks for your careful reply, and thanks again for this excellent software, which somehow has flown under my radar for a long time now.

Next time I need to use it I am gonna send you a contribution. I promise.
laserfan is offline   Reply With Quote
Old 30th June 2011, 16:26   #1814  |  Link
broxburn
Registered User
 
Join Date: Jun 2005
Posts: 77
Windows 7 64bit.
XviD1.2.1 or 1.32.

Selecting QuEnc (no problem with HcEnc) the conversion freezes as soon as the QuEnc window pops up (Not Responding in Task Manager).
Single or multi-thread.
If I choose multithread I get four instances of QuEnc not responding.
I found that if I changed the fourCC code of the AVI to DX50 there is no problem.
If I was to simply run QuEnc from the subfolder it creates the mpeg file OK.


( I found that FAVC displays the same behaviour, but put it down to being older and not supported recently).
broxburn is offline   Reply With Quote
Old 30th June 2011, 19:22   #1815  |  Link
MrC
AVStoDVD Dev
 
MrC's Avatar
 
Join Date: Apr 2006
Location: Italy
Posts: 1,246
@laserfan

thank you very much in advance

@broxburn

have you installed Windows 7 Preferred Filter Tweaker and selected XviD as default decoder?

Bye

MrC
__________________
MrC

AVStoDVD Homepage
AVStoDVD @ Doom9 Forum
MrC is offline   Reply With Quote
Old 30th June 2011, 19:39   #1816  |  Link
broxburn
Registered User
 
Join Date: Jun 2005
Posts: 77
It worked - many thanks.
broxburn is offline   Reply With Quote
Old 1st July 2011, 01:30   #1817  |  Link
8ternity
Registered User
 
8ternity's Avatar
 
Join Date: May 2008
Location: At Home
Posts: 403
Here the second log (2.3.4 version):
Code:
<2011-06-30 18:19:35>
START PROCESS
<>

<2011-06-30 18:19:35>
PROJECT SETTINGS

DVD Video Standard: NTSC
DVD Titles number: 1
DVD Size: 4450/4450 MB (100%)
DVD Output Setup: DVD Folder
DVD Label: THE_REBOUND
DVD Menu: No Menu
Output Folder: E:\DVD-TEMP
Delete Temp Process Files: Yes
Delete Working Files: Yes
Edit Command Parameters: No
Post Process Task: Show Progress Status window

PREFERENCES

MultiThread: 1
AVS Source Filter: DirectShowSource
AVS UpSize/DownSize Filter: Spline36Resize/Spline36Resize
Video Resolution: 0
Video BitRate Min: 2500
Video BitRate Level 1: 8500
Video Profile Level 2: 8500
Video BitRate Max: 8500
Keep DVD Compliant Video: 1
AC3 Audio Encoder: 0
PAL SpeedUp: 0
Force FFmpeg for Long Audio: 1
DVD Audio Format: 0
DVD Audio BitRate: 448
Keep DVD Compliant Audio: 0
Normalize Audio: 0
Auto Delay Audio: 0
DVD Audio Language: FR - French
DVD Subs Language: FR - French
DVD Subs Font: Tahoma 18pt Bold
Chapters Interval: 5
Use Source Chapters: 1
DVD Burning Drive: F: Optiarc DVD RW AD-7241S 1.03
DVD Burning Speed: 4x
Auto Erase DVD RW: 1
Save Log file: 1
Save General Settings: 0
Unload ActiveMovie library: 0
Adjust ffdshow mixer: 1
<>

<2011-06-30 18:19:35>
TITLE 1 SOURCE FILES
Video: E:\BLURAY\The Rebound FRENCH AC3 720P AFF DVD5.AVCHD\BDMV\STREAM\00000.m2ts
Info: AVC - 5765 kbps - 1280x720 - DAR 1,778 - 23,976 fps (CFR) - Progressive - 1:34:38 hours - 136150 frames
Audio 1: E:\BLURAY\The Rebound FRENCH AC3 720P AFF DVD5.AVCHD\BDMV\STREAM\00000.m2ts
Info: AC3 - 448 kbps - CBR - 6ch - 48000Hz - 16bit - 1:34:38 hours - Internal
Subs: 
[MediaInfoLib - v0.7.41]
<>

<2011-06-30 18:19:35>
AVISYNTH SCRIPT
Video = DirectShowSource("E:\BLURAY\The Rebound FRENCH AC3 720P AFF DVD5.AVCHD\BDMV\STREAM\00000.m2ts", audio=false)
Audio = DirectShowSource("E:\BLURAY\The Rebound FRENCH AC3 720P AFF DVD5.AVCHD\BDMV\STREAM\00000.m2ts", video=false)

Video = Video.ConvertToYV12
#Using DGPulldown/HCenc to upsize FPS
Video = Video.Spline36Resize(720,480)

AudioDub(Video, Audio)
<>

<2011-06-30 18:19:35>
START VIDEO ENCODING OPERATIONS
Encoding Profile: HCenc VBR 2-pass
Target Video FileSize: 4053,8 MB
HCenc Parameters: -ini "E:\Temp\THE_REBOUND_1_THE_REBOUND.HCenc.ini"
HCenc ini file:
*INFILE E:\Temp\THE_REBOUND_1_THE_REBOUND_1.avs
*AVSRELOAD
*OUTFILE E:\DVD-TEMP\THE_REBOUND_1_THE_REBOUND.m2v
*LOGFILE E:\Temp\THE_REBOUND_1_THE_REBOUND.HCenc.log
*MAXBITRATE 9000
*BITRATE 5988
*PROFILE BEST
*ASPECT 16:9
*PROGRESSIVE
*TFF
*PULLDOWN
*BIAS 60
*DC_PREC 9
*MATRIX MPEG
*AQ 1
*LUMGAIN 1
*SMP
*PRIORITY IDLE
*WAIT 2
<>

<2011-06-30 19:06:29>
END VIDEO ENCODING OPERATIONS
Created File: E:\DVD-TEMP\THE_REBOUND_1_THE_REBOUND.m2v (4034,9 MB)
OUTPUT VIDEO INFO: MPEG-2 Video - 6003 kbps - 720x480 - DAR 1,778 - 23,976 fps (CFR) - Progressive (2:3 Pulldown) - 1:34:38 hours - 136148 frames
<>

<2011-06-30 19:06:29>
START AUDIO ENCODING OPERATIONS (Track 1)
Wavi+Aften Parameters: "E:\Temp\THE_REBOUND_1_THE_REBOUND_1.avs" - | "C:\Program Files (x86)\AVStoDVD\Aften\aften.exe" -b 448 -pad 0 -dynrng 5 -bwfilter 0 - "E:\DVD-TEMP\THE_REBOUND_1_THE_REBOUND_1.ac3"
<>

<2011-06-30 19:08:37>
END AUDIO ENCODING OPERATIONS (Track 1)
Created File: E:\DVD-TEMP\THE_REBOUND_1_THE_REBOUND_1.ac3 (303,3 MB)
OUTPUT AUDIO INFO: AC3 - 448 kbps - CBR - 6ch - 48000Hz - 16bit - 1:34:38 hours
<>

<2011-06-30 19:08:37>
START DVD AUTHORING OPERATIONS
BatchMux Parameters: -arglist "E:\Temp\THE_REBOUND_1_BatchMux.ini"
BatchMux ini file:
-d "E:\DVD-TEMP\THE_REBOUND_1\VIDEO_TS"
-mxp "E:\Temp\THE_REBOUND_1_MuxMan.mxp"
-l "E:\Temp\THE_REBOUND_1_MuxMan.log"
-muxman "C:\Program Files (x86)\AVStoDVD\MuxMan"
-prio LOW
-v "E:\DVD-TEMP\THE_REBOUND_1_THE_REBOUND.m2v"
-vidmode LB
-a1 "E:\DVD-TEMP\THE_REBOUND_1_THE_REBOUND_1.ac3"
-a1lang fr
-cellfr "E:\DVD-TEMP\THE_REBOUND_1_THE_REBOUND_Chapters.txt"
-progfr "E:\DVD-TEMP\THE_REBOUND_1_THE_REBOUND_Chapters.txt"
-chapfr "E:\DVD-TEMP\THE_REBOUND_1_THE_REBOUND_Chapters.txt"

<>

<2011-06-30 19:11:53>
CHECK DVD SIZE
DVD Folder (actual) Size: 4422,3 MB
vs Estimated Size: 4450 MB -> 0,6% undersize
vs Assets Size: 4338,1 MB -> OK
<>

<2011-06-30 19:11:53>
END DVD AUTHORING OPERATIONS
Created Folder: E:\DVD-TEMP\THE_REBOUND_1 (4422,3 MB)
<>

<2011-06-30 19:11:53>
Log file created by AVStoDVD Release 2.3.4
<>
__________________
PC; 7.5 on 7.9 (Windows Experience Rating) on the lower rating.
8ternity is offline   Reply With Quote
Old 1st July 2011, 10:10   #1818  |  Link
ynamojn
Registered User
 
Join Date: Feb 2010
Posts: 5
Quote:
Originally Posted by MrC View Post
@ynamojn

take a look at Help/FAQ/Audio/Q4.1



Bye
Thanks. I got it now. Another question, this is just confirmation. Suppose the source is 24 bit DTS, then it will not be retained?

Last edited by ynamojn; 1st July 2011 at 10:19.
ynamojn is offline   Reply With Quote
Old 1st July 2011, 14:55   #1819  |  Link
MrC
AVStoDVD Dev
 
MrC's Avatar
 
Join Date: Apr 2006
Location: Italy
Posts: 1,246
@8ternity

see source title info readings:

AVStoDVD 2.3.4 (MediaInfo 0.7.41)
Code:
Video: E:\BLURAY\The Rebound FRENCH AC3 720P AFF DVD5.AVCHD\BDMV\STREAM\00000.m2ts
Info: AVC - 5765 kbps - 1280x720 - DAR 1,778 - 23,976 fps (CFR) - Progressive - 1:34:38 hours - 136150 frames
AVStoDVD 2.4.1 Alpha (MediaInfo 0.7.44)
Code:
Video: E:\BLURAY\The Rebound FRENCH AC3 720P AFF DVD5.AVCHD\BDMV\STREAM\00000.m2ts
Info: AVC - 5765 kbps - 1280x720 - DAR 1,778 - 0 fps (CFR) - Progressive - 1:34:38 hours - 136150 frames
Thus AVStoDVD 2.4.1 Alpha does not apply 2:3 pulldown command when encoding with HCenc.

Do you have the possibility to copy&paste here the full MediaInfo 0.7.44 (advanced mode) report?


@ynamojn

No, it will not (FAQ/Audio/Q4.4)




Bye
__________________
MrC

AVStoDVD Homepage
AVStoDVD @ Doom9 Forum
MrC is offline   Reply With Quote
Old 2nd July 2011, 04:57   #1820  |  Link
8ternity
Registered User
 
8ternity's Avatar
 
Join Date: May 2008
Location: At Home
Posts: 403
Here the advanced log took with 0.7.44.
Code:
General 
Count : 277 
Count of stream of this kind : 1 
Kind of stream : General 
Kind of stream : General 
Stream identifier : 0 
ID : 1 
ID : 1 (0x1) 
Count of video streams : 1 
Count of audio streams : 1 
Video_Format_List : AVC 
Video_Format_WithHint_List : AVC 
Codecs Video : AVC 
Audio_Format_List : AC-3 
Audio_Format_WithHint_List : AC-3 
Audio codecs : AC3 
Audio_Language_List : French 
Complete name : E:\BLURAY\The Rebound FRENCH AC3 720P AFF DVD5.AVCHD\BDMV\STREAM\00000.m2ts 
Folder name : E:\BLURAY\The Rebound FRENCH AC3 720P AFF DVD5.AVCHD\BDMV\STREAM 
File name : 00000 
File extension : m2ts 
Format : BDAV 
Format : BDAV 
Format/Info : Blu-ray Video 
Format/Extensions usually used : m2ts 
Commercial name : BDAV 
Codec : BDAV 
Codec : BDAV 
Codec/Info : Blu-ray Video 
Codec/Extensions usually used : m2ts 
File size : 4688658432 
File size : 4.37 GiB 
File size : 4 GiB 
File size : 4.4 GiB 
File size : 4.37 GiB 
File size : 4.367 GiB 
Duration : 5678601.711111 
Duration : 1h 34mn 
Duration : 1h 34mn 38s 602ms 
Duration : 1h 34mn 
Duration : 01:34:38.602 
Overall bit rate : 6605362 
Overall bit rate : 6 605 Kbps 
Maximum Overall bit rate : 35500000 
Maximum Overall bit rate : 35.5 Mbps 
Stream size : 191972997 
Stream size : 183 MiB (4%) 
Stream size : 183 MiB 
Stream size : 183 MiB 
Stream size : 183 MiB 
Stream size : 183.1 MiB 
Stream size : 183 MiB (4%) 
Proportion of this stream : 0.04094 
File creation date : UTC 2011-06-26 21:18:40.871 
File creation date (local) : 2011-06-26 17:18:40.871 
File last modification date : UTC 2011-06-26 21:19:32.437 
File last modification date (local) : 2011-06-26 17:19:32.437 

Video 
Count : 193 
Count of stream of this kind : 1 
Kind of stream : Video 
Kind of stream : Video 
Stream identifier : 0 
ID : 4113 
ID : 4113 (0x1011) 
Menu ID : 1 
Menu ID : 1 (0x1) 
Format : AVC 
Format/Info : Advanced Video Codec 
Format/Url : http://developers.videolan.org/x264.html 
Commercial name : AVC 
Format profile : High@L4.0 
Format settings : CABAC / 3 Ref Frames 
Format settings, CABAC : Yes 
Format settings, CABAC : Yes 
Format settings, ReFrames : 3 
Format settings, ReFrames : 3 frames 
Internet media type : video/H264 
Codec ID : 27 
Codec : AVC 
Codec : AVC 
Codec/Family : AVC 
Codec/Info : Advanced Video Codec 
Codec/Url : http://developers.videolan.org/x264.html 
Codec profile : High@L4.0 
Codec settings : CABAC / 3 Ref Frames 
Codec settings, CABAC : Yes 
Codec_Settings_RefFrames : 3 
Duration : 5678590 
Duration : 1h 34mn 
Duration : 1h 34mn 38s 590ms 
Duration : 1h 34mn 
Duration : 01:34:38.590 
Bit rate mode : VBR 
Bit rate mode : Variable 
Bit rate : 5765000 
Bit rate : 5 765 Kbps 
Maximum bit rate : 25000000 
Maximum bit rate : 25.0 Mbps 
Width : 1280 
Width : 1 280 pixels 
Height : 720 
Height : 720 pixels 
Pixel aspect ratio : 1.000 
Display aspect ratio : 1.778 
Display aspect ratio : 16:9 
Frame rate : 23.976 
Frame rate : 23.976 fps 
Frame count : 136150 
Resolution : 8 
Resolution : 8 bits 
Colorimetry : 4:2:0 
Color space : YUV 
Chroma subsampling : 4:2:0 
Bit depth : 8 
Bit depth : 8 bits 
Scan type : Progressive 
Scan type : Progressive 
Interlacement : PPF 
Interlacement : Progressive 
Bits/(Pixel*Frame) : 0.261 
Delay : 600000.000 
Delay : 10mn 0s 
Delay : 10mn 0s 0ms 
Delay : 10mn 0s 
Delay : 00:10:00.000 
Delay, origin : Container 
Delay, origin : Container 
Stream size : 4178682491 
Stream size : 3.89 GiB (89%) 
Stream size : 4 GiB 
Stream size : 3.9 GiB 
Stream size : 3.89 GiB 
Stream size : 3.892 GiB 
Stream size : 3.89 GiB (89%) 
Proportion of this stream : 0.89123 
Writing library : x264 - core 114 r1924 08d04a4 
Writing library : x264 core 114 r1924 08d04a4 
Writing library/Name : x264 
Writing library/Version : core 114 r1924 08d04a4 
Encoding settings : cabac=1 / ref=3 / deblock=1:0:0 / analyse=0x3:0x133 / me=umh / subme=7 / psy=1 / psy_rd=1.00:0.00 / mixed_ref=1 / me_range=16 / chroma_me=1 / trellis=1 / 8x8dct=1 / cqm=0 / deadzone=21,11 / fast_pskip=1 / chroma_qp_offset=-2 / threads=6 / sliced_threads=0 / nr=0 / decimate=1 / interlaced=0 / constrained_intra=0 / bframes=3 / b_pyramid=0 / b_adapt=1 / b_bias=0 / direct=1 / weightb=1 / open_gop=0 / weightp=2 / keyint=240 / keyint_min=24 / scenecut=40 / intra_refresh=0 / rc_lookahead=40 / rc=2pass / mbtree=1 / bitrate=5765 / ratetol=1.0 / qcomp=0.60 / qpmin=0 / qpmax=69 / qpstep=4 / cplxblur=20.0 / qblur=0.5 / vbv_maxrate=25000 / vbv_bufsize=25000 / nal_hrd=vbr / ip_ratio=1.40 / aq=1:1.00 
Buffer size : 3125000 

Audio 
Count : 167 
Count of stream of this kind : 1 
Kind of stream : Audio 
Kind of stream : Audio 
Stream identifier : 0 
ID : 4352 
ID : 4352 (0x1100) 
Menu ID : 1 
Menu ID : 1 (0x1) 
Format : AC-3 
Format/Info : Audio Coding 3 
Commercial name : AC-3 
Mode extension : CM (complete main) 
Codec ID : 129 
Codec : AC3 
Codec : AC3 
Duration : 5678624 
Duration : 1h 34mn 
Duration : 1h 34mn 38s 624ms 
Duration : 1h 34mn 
Duration : 01:34:38.624 
Bit rate mode : CBR 
Bit rate mode : Constant 
Bit rate : 448000 
Bit rate : 448 Kbps 
Channel(s) : 6 
Channel(s) : 6 channels 
Channel positions : Front: L C R, Side: L R, LFE 
Channel positions : 3/2/0.1 
Sampling rate : 48000 
Sampling rate : 48.0 KHz 
Samples count : 272573952 
Frame count : 177457 
Resolution : 16 
Resolution : 16 bits 
Bit depth : 16 
Bit depth : 16 bits 
Compression mode : Lossy 
Compression mode : Lossy 
Delay : 600000.000 
Delay : 10mn 0s 
Delay : 10mn 0s 0ms 
Delay : 10mn 0s 
Delay : 00:10:00.000 
Delay, origin : Container 
Delay, origin : Container 
Delay relative to video : 0 
Video0 delay : 0 
Stream size : 318002944 
Stream size : 303 MiB (7%) 
Stream size : 303 MiB 
Stream size : 303 MiB 
Stream size : 303 MiB 
Stream size : 303.3 MiB 
Stream size : 303 MiB (7%) 
Proportion of this stream : 0.06782 
Language : fr 
Language : French 
Language : French 
Language : fr 
Language : fra 
Language : fr 
dialnorm : -31 
dialnorm/String : -31 dB 
bsid : 8 
dialnorm_Average : -31 
dialnorm_Average/String : -31 dB 
dialnorm_Minimum : -31 
dialnorm_Minimum/String : -31 dB 
dialnorm_Maximum : -31 
dialnorm_Maximum/String : -31 dB 
dialnorm_Count : 2
__________________
PC; 7.5 on 7.9 (Windows Experience Rating) on the lower rating.
8ternity is offline   Reply With Quote
Reply

Thread Tools Search this Thread
Search this Thread:

Advanced Search
Display Modes

Posting Rules
You may not post new threads
You may not post replies
You may not post attachments
You may not edit your posts

BB code is On
Smilies are On
[IMG] code is Off
HTML code is Off

Forum Jump


All times are GMT +1. The time now is 09:51.


Powered by vBulletin® Version 3.8.11
Copyright ©2000 - 2017, vBulletin Solutions Inc.