Welcome to Doom9's Forum, THE in-place to be for everyone interested in DVD conversion.

Before you start posting please read the forum rules. By posting to this forum you agree to abide by the rules.

 

Go Back   Doom9's Forum > Announcements and Chat > General Discussion

Reply
 
Thread Tools Search this Thread Display Modes
Old 1st October 2010, 23:42   #1  |  Link
leperlord
Registered User
 
Join Date: Jul 2006
Posts: 34
HD media problems with MKV please advise

Hi

I bought a Diamond mp1000 and have had no problems until now

Its played every file I ve thrown at it , mkv or any other

Until this partiular one mkv

i get no video , and no English audio ,yet on my pc

with a player called VLC , I have no problems

Im not sure if you need this info , but heres what

media info says of this file and also mkv verify

finds no errors


(mkv parser) note:
File type: Matroska v2



Format : Matroska
File size : 12.5 GiB
Duration : 2h 4mn
Overall bit rate : 14.4 Mbps
Encoded date : UTC 2010-09-27 00:14:41
Writing application : mkvmerge v4.3.0 ('Escape from the Island') realizado en Sep 4 2010 23:24:47
Writing library : libebml v1.0.0 + libmatroska v1.0.0

Video
ID : 1
Format : AVC
Format/Info : Advanced Video Codec
Format profile : High@L4.1
Format settings, CABAC : Yes
Format settings, ReFrames : 5 frames
Muxing mode : Container profile=Unknown@4.1
Codec ID : V_MPEG4/ISO/AVC
Duration : 2h 4mn
Bit rate : 12.4 Mbps
Width : 1 920 pixels
Height : 816 pixels
Display aspect ratio : 2.35:1
Frame rate : 23.976 fps
Color space : YUV
Chroma subsampling : 4:2:0
Bit depth : 8 bits
Scan type : Progressive
Bits/(Pixel*Frame) : 0.330
Stream size : 10.6 GiB (84%)
Writing library : x264 core 104 r1703 cd21d05
Encoding settings : cabac=1 / ref=5 / deblock=1:-3:-3 / analyse=0x3:0x113 / me=umh / subme=9 / psy=1 / psy_rd=1.00:0.00 / mixed_ref=1 / me_range=32 / chroma_me=1 / trellis=2 / 8x8dct=1 / cqm=0 / deadzone=21,11 / fast_pskip=0 / chroma_qp_offset=-4 / threads=12 / sliced_threads=0 / nr=0 / decimate=0 / interlaced=0 / constrained_intra=0 / bframes=5 / b_pyramid=2 / b_adapt=2 / b_bias=0 / direct=3 / weightb=1 / open_gop=0 / weightp=2 / keyint=250 / keyint_min=23 / scenecut=40 / intra_refresh=0 / rc=2pass / mbtree=0 / bitrate=12410 / ratetol=1.0 / qcomp=0.60 / qpmin=10 / qpmax=51 / qpstep=4 / cplxblur=20.0 / qblur=0.5 / ip_ratio=1.40 / pb_ratio=1.30 / aq=1:0.90
Language : English

Audio #1
ID : 2
Format : AC-3
Format/Info : Audio Coding 3
Mode extension : CM (complete main)
Muxing mode : Header stripping
Codec ID : A_AC3
Duration : 2h 4mn
Bit rate mode : Constant
Bit rate : 448 Kbps
Channel(s) : 6 channels
Channel positions : Front: L C R, Side: L R, LFE
Sampling rate : 48.0 KHz
Bit depth : 16 bits
Stream size : 399 MiB (3%)
Language : Spanish

Audio #2
ID : 3
Format : DTS
Format/Info : Digital Theater Systems
Muxing mode : Header stripping
Codec ID : A_DTS
Duration : 2h 4mn
Bit rate mode : Constant
Bit rate : 1 510 Kbps
Channel(s) : 6 channels
Channel positions : Front: L C R, Side: L R, LFE
Sampling rate : 48.0 KHz
Bit depth : 24 bits
Stream size : 1.31 GiB (11%)
Language : English

Text #1
ID : 4
Format : UTF-8
Codec ID : S_TEXT/UTF8
Codec ID/Info : UTF-8 Plain Text
Language : Spanish

Text #2
ID : 5
Format : UTF-8
Codec ID : S_TEXT/UTF8
Codec ID/Info : UTF-8 Plain Text
Language : English
leperlord is offline   Reply With Quote
Old 2nd October 2010, 00:29   #2  |  Link
stax76
Registered User
 
stax76's Avatar
 
Join Date: Jun 2002
Location: On thin ice
Posts: 6,840
The problem might have to do with how the file was created so please tell us exactly how it was created.

Last edited by stax76; 2nd October 2010 at 00:32.
stax76 is offline   Reply With Quote
Old 2nd October 2010, 00:57   #3  |  Link
poisondeathray
Registered User
 
Join Date: Sep 2007
Posts: 5,416
remux it and disable header compression, or use an older version of mkvtoolnix (4.0 or earlier) . Many devices do not like header compression
poisondeathray is offline   Reply With Quote
Old 2nd October 2010, 02:04   #4  |  Link
Blue_MiSfit
Derek Prestegard IRL
 
Blue_MiSfit's Avatar
 
Join Date: Nov 2003
Location: Los Angeles
Posts: 5,991
Leperlord, it sounds an awful lot like you downloaded this file... Do you have the rights to do so?

Derek
__________________
These are all my personal statements, not those of my employer :)
Blue_MiSfit is offline   Reply With Quote
Old 2nd October 2010, 03:08   #5  |  Link
7ekno
Guest
 
Posts: n/a
+1 remux without header compression ...

7
  Reply With Quote
Reply

Thread Tools Search this Thread
Search this Thread:

Advanced Search
Display Modes

Posting Rules
You may not post new threads
You may not post replies
You may not post attachments
You may not edit your posts

BB code is On
Smilies are On
[IMG] code is On
HTML code is Off

Forum Jump


All times are GMT +1. The time now is 20:49.


Powered by vBulletin® Version 3.8.11
Copyright ©2000 - 2024, vBulletin Solutions Inc.