PDA

View Full Version : help:couldn't encode audio in this file!


always_msp
1st November 2009, 18:15
the error is:
[Error] An error occurred
-[NoImage] Exception message: 管道已结束(pipeline is over)。
-[NoImage] Stacktrace
--[NoImage] in System.IO.__Error.WinIOError(Int32 errorCode, String maybeFullPath)
--[NoImage] in System.IO.FileStream.WriteCore(Byte[] buffer, Int32 offset, Int32 count)
--[NoImage] in System.IO.FileStream.Write(Byte[] array, Int32 offset, Int32 count)
--[NoImage] in MeGUI.AviSynthAudioEncoder.encode()
-[NoImage] Inner exception: null

and mediainfo is:

general
Complete name : D:\private\MSP\zjj\DSCF6567.AVI
Format : AVI
Format/Info : Audio Video Interleave
File size : 390 MiB
Duration : 7' 36'
Overall bit rate : 7 175 Kbps
Mastered date : Thu Jan 1 00:07:23 2009

video
Format : M-JPEG
Codec ID : MJPG
Duration : 7' 36'
Bit rate : 7 081 Kbps
Width : 640pix
Height : 480pix
Display aspect ratio : 4/3
Frame rate : 30.000 fps
Resolution : 24bit
Bits/(Pixel*Frame) : 0.768
Stream size : 385 MiB (99%)
Title : FUJIFILM AVI STREAM 0100

audio
Format : PCM
Format settings, Endianness : Little
Format settings, Sign : Unsigned
Codec ID : 1
Codec ID/Hint : Microsoft
Duration : 7' 36''
Bit rate mode : CBR
Bit rate : 88.2 Kbps
Channel(s) : 1track
Sampling rate : 11.024 KHz
Resolution : 8bit
Stream size : 4.79 MiB (1%)
Interleave, duration : 1000 ms (30.00 frames)
Interleave, preload duration : 1000 ms


:confused:I have trouble in browsing the forum, hope anyone who knows the solution email to this address: always_msp@hotmail.com.

THX! it's urgent!

setarip_old
1st November 2009, 18:23
Hi!

What are you trying to convert this 8bit, 11KHz monaural audiostream to?